Поиск

1962 Art Blakey and The Afro-Drum Ensemble - The African Beat (2018) {RevOla} [24-44.1]

1962 Art Blakey and The Afro-Drum Ensemble - The African Beat (2018) {RevOla} [24-44.1]
Дата записи диска:
24 января 1962
Место записи:
Rudy Van Gelder Studio, Englewood Cliffs, New Jersey, USA
Издатель (лейбл):
Носитель:
WEB
Формат:
PCM
Тип рипа:
tracks
Контейнер:
FLAC (*.flac)
Количество каналов:
2.0
Разрядность/ЧД:
24/44,1
Битрейт аудио:
lossless
Наличие сканов:
только обложка

01 - Prayer by Solomon G. Ilori 00:55
02 - Ife L'Ayo (There Is Happiness In Love) 05:30
03 - Obirin African (Woman Of Africa) 03:42
04 - Love, The Mystery Of 09:24
05 - Ero Ti Nr'Ojeje 07:34
06 - Ayiko, Ayiko (Welcome, Welcome, My Darling) 07:14
07 - Tobi Ilu 05:57

Состав:
  •     Bass – Ahmed Abdul-Malik
  •     Bata [Bata Drum], Congas – Robert Crowder
  •     Congas – James Ola Folami
  •     Congas, Drum [Telegraph Drum], Gong [Double Gong] – Chief Bey
  •     Drum [Bambara Drum], Gong [Double Gong], Drum [Log Drum], Drum [Corboro Drum] – Montego Joe
  •     Drums, Timpani, Gong, Drum [Telegraph Drum] – Art Blakey
  •     Engineer [Recording] – Rudy Van Gelder
  •     Liner Notes – Nat Hentoff
  •     Oboe, Flute, Tenor Saxophone, Horns [Cow Horn], Kalimba [Thumb Piano] – Yusef Lateef
  •     Producer – Alfred Lion
  •     Shekere [Chekere], Maracas [African Maracas], Congas – Garvin Masseaux
  •     Timpani – Curtis Fuller
  •     Vocals, Whistle [Penny Whistle], Talking Drum – Solomon G. Ilori
Лог проверки качества
foobar2000 1.4.6 / Dynamic Range Meter 1.1.1
log date: 2022-01-15 10:15:38
--------------------------------------------------------------------------------
Analyzed: Art Blakey / The African Beat
--------------------------------------------------------------------------------
DR         Peak         RMS     Duration Track
--------------------------------------------------------------------------------
DR15      -3.42 dB   -26.29 dB      0:55 01-Prayer by Solomon G. Ilori (remastered)
DR13      -1.94 dB   -18.61 dB      5:31 02-Ife L'Ayo (There Is Happiness In Love) (remastered)
DR12      -2.48 dB   -18.19 dB      3:43 03-Obirin African (Woman Of Africa) (remastered)
DR12      -1.22 dB   -16.22 dB      9:24 04-Love, The Mystery Of (remastered)
DR13      -1.68 dB   -17.68 dB      7:34 05-Ero Ti Nr'Ojeje (remastered)
DR12      -1.46 dB   -16.39 dB      7:15 06-Ayiko, Ayiko (Welcome, Welcome, My Darling) (remastered)
DR12      -1.92 dB   -15.92 dB      5:57 07-Tobi Ilu (remastered)
--------------------------------------------------------------------------------
Number of tracks:  7
Official DR value: DR13
Samplerate:        44100 Hz
Channels:          2
Bits per sample:   24
Bitrate:           1620 kbps
Codec:             FLAC
================================================================================
Приватный:
Нет (DHT включён)
Размер:
453.24 Мб (475,251,872 байт) » файлов: 11
Участники:
0 раздают, 0 качают (0 участников всего)
Внешние участники:
7 раздают, 2 качают (9 участников всего) [ Обновить ]
15:15
413
Нет комментариев. Ваш будет первым!