Вы используете незарегистрированную версию компонента "Вкладки"!

Поиск

1962 Ahmad Jamal - Ahmad Jamal at the Blackhawk (2015) {Crazy Warthog} [24-44,1]

1962 Ahmad Jamal - Ahmad Jamal at the Blackhawk (2015) {Crazy Warthog} [24-44,1]
Стили:
Дата записи диска:
1 ноября 1961
Место записи:
The Blackhawk, San Francisco, California, USA
Битрейт аудио:
lossless
Доп. инфо:

Формат записи/Источник записи: [TR24][OF]
Издание: Remastered
Год издания/переиздания диска: 1962/2015
Издатель (лейбл): Crazy Warthog Media
Продолжительность: 00:37:48
Наличие сканов в содержимом раздачи: Нет

Контейнер: FLAC (*.flac)
Тип рипа: tracks
Разрядность: 24/44,1
Количество каналов: 2.0

Источник (релизер): Qobuz

Лог проверки качества
foobar2000 1.4.3 / Dynamic Range Meter 1.1.1
log date: 2020-05-17 21:23:54

--------------------------------------------------------------------------------
Analyzed: Ahmad Jamal / Ahmad Jamal at the Blackhawk
--------------------------------------------------------------------------------

DR         Peak         RMS     Duration Track
--------------------------------------------------------------------------------
DR13      -1.58 dB   -20.53 dB      6:15 01-I'll Take Romance My Funny Valentine
DR15      -0.08 dB   -21.30 dB      2:52 02-Like Someone in Love
DR14      -5.72 dB   -23.77 dB      4:21 03-Falling in Love With Love
DR15      -1.07 dB   -20.30 dB      4:38 04-The Best Thing for You
DR15      -0.10 dB   -21.76 dB      4:06 05-April in Paris
DR16      -1.67 dB   -24.43 dB      4:19 06-The Second Time Around
DR16      -0.62 dB   -21.67 dB      4:28 07-We Live in Two Different Worlds
DR17      -1.35 dB   -23.74 dB      6:52 08-Night Mist Blues
--------------------------------------------------------------------------------

Number of tracks:  8
Official DR value: DR15

Samplerate:        44100 Hz
Channels:          2
Bits per sample:   24
Bitrate:           1357 kbps
Codec:             FLAC
================================================================================
Any questions - support@pro-jazz.com. Есть вопросы - support@pro-jazz.com
12:16
256
Нет комментариев. Ваш будет первым!