Вы используете незарегистрированную версию компонента "Вкладки"!

Поиск

1946 June Christy - With The Kentones...Again! (2019) {RevOla} [24-44,1]

1946 June Christy - With The Kentones...Again! (2019) {RevOla} [24-44,1]
Стили:
Издатель (лейбл):
Битрейт аудио:
lossless
Доп. инфо:

Формат записи/Источник записи: [TR24][OF]
Издание: Remastered
Год издания/переиздания диска: 1946/2019
Издатель (лейбл): RevOla
Продолжительность: 00:50:15
Наличие сканов в содержимом раздачи: Нет

Контейнер: FLAC (*.flac)
Тип рипа: tracks
Разрядность: 24/44,1
Количество каналов: 2.0

Источник (релизер): Qobuz

Лог проверки качества
foobar2000 1.4.3 / Dynamic Range Meter 1.1.1
log date: 2020-05-11 10:37:13

--------------------------------------------------------------------------------
Analyzed: June Christy / With The Kentones...Again! (Remastered)
--------------------------------------------------------------------------------

DR         Peak         RMS     Duration Track
--------------------------------------------------------------------------------
DR12      -3.34 dB   -18.43 dB      2:35 01-Lullaby In Rhythm (Remastered)
DR12      -4.34 dB   -20.11 dB      3:17 02-This Is Romance (Remastered)
DR12      -4.11 dB   -19.42 dB      3:35 03-Supper Time (Remastered)
DR13      -2.72 dB   -20.12 dB      3:09 04-I'm Thrilled (Remastered)
DR13      -3.74 dB   -19.21 dB      1:59 05-I Can't Give You Anything But Love (Remastered)
DR12      -3.67 dB   -19.63 dB      3:07 06-How Long Has This Been Going On? (Remastered)
DR11      -3.57 dB   -19.62 dB      3:01 07-You're Blase (Remastered)
DR12      -4.34 dB   -19.14 dB      3:01 08-Prelude To A Kiss (Remastered)
DR13      -3.39 dB   -19.82 dB      3:14 09-What's New? (Remastered)
DR11      -2.99 dB   -16.46 dB      2:15 10-Wherever There's Me There's You (Remastered)
DR12      -3.33 dB   -17.32 dB      2:18 11-All The Cats Join In (Remastered)
DR11      -4.35 dB   -18.89 dB      3:13 12-A Nightingale Can Sing The Blues (Remastered)
DR11      -3.05 dB   -17.11 dB      3:18 13-Come Rain Or Come Shine (Remastered)
DR13      -3.16 dB   -18.73 dB      2:24 14-The Best Man (Remastered)
DR13      -2.35 dB   -18.57 dB      2:15 15-If You Were The Only Boy (Remastered)
DR12      -3.32 dB   -19.67 dB      2:31 16-Love Doesn't Grow On Trees (Remastered)
DR12      -2.77 dB   -18.32 dB      2:12 17-I Guess I'll Get The Papers And Go Home (Remastered)
DR12      -3.44 dB   -18.82 dB      3:02 18-My Sugar Is So Refined (Remastered)
--------------------------------------------------------------------------------

Number of tracks:  18
Official DR value: DR12

Samplerate:        44100 Hz
Channels:          2
Bits per sample:   24
Bitrate:           1002 kbps
Codec:             FLAC
================================================================================
Any questions - support@pro-jazz.com. Есть вопросы - support@pro-jazz.com
09:15
318
Нет комментариев. Ваш будет первым!