Поиск

1961 Wes Montgomery - So Much Guitar (1987) {Riverside OJC RLP-9382 (OJCCD-233-2)} [CD]

1961 Wes Montgomery - So Much Guitar (1987) {Riverside OJC RLP-9382 (OJCCD-233-2)} [CD]
Стили:
Дата записи диска:
4 августа 1961
Дата издания диска:
октябрь 1961
Дата переиздания диска:
1987
Издатель (лейбл):
Номер по каталогу:
RLP-9382 / OJCCD-233-2
Носитель:
CD
Тип рипа:
tracks+.cue
Аудиокодек:
FLAC (*.flac)
Битрейт аудио:
lossless
Время звучания:
38:54
Страна-производитель диска (релиза):
USA
Релизёр (источник):
adugin

Треклист:

01. Twisted Blues 5:31
02. Cotton Tail 3:38
03. I Wish I Knew 5:26
04. I'm Just a Lucky So and So 5:57
05. Repetition 3:48
06. Something Like Bags 4:44
07. While We're Young 2:12
08. One for My Baby (And One More for the Road) 7:38

Лог создания рипа
EAC extraction logfile from 26. April 2006, 10:41 for CD
Wes Montgomery / SO Much Guitar!

Used drive  : MIDA    50XB   Adapter: 1  ID: 0
Read mode   : Secure with NO C2, accurate stream, disable cache
Read offset correction : 451
Overread into Lead-In and Lead-Out : No

Used output format : Internal WAV Routines
                     44.100 Hz; 16 Bit; Stereo

Other options      : 
    Fill up missing offset samples with silence : Yes
    Delete leading and trailing silent blocks : No
    Native Win32 interface for Win NT & 2000


Track  1
     Filename F:\upload\Wes Montgomery - SO Much Guitar! (1961) [FLAC]\01 - Twisted Blues.wav

     Pre-gap length  0:00:02.00

     Peak level 96.9 %
     Track quality 100.0 %
     Test CRC 4E8470C1
     Copy CRC 4E8470C1
     Copy OK

Track  2
     Filename F:\upload\Wes Montgomery - SO Much Guitar! (1961) [FLAC]\02 - Cotton Tail.wav

     Pre-gap length  0:00:02.00

     Peak level 96.7 %
     Track quality 100.0 %
     Test CRC BF69375B
     Copy CRC BF69375B
     Copy OK

Track  3
     Filename F:\upload\Wes Montgomery - SO Much Guitar! (1961) [FLAC]\03 - I Wish I Knew.wav

     Pre-gap length  0:00:02.00

     Peak level 85.6 %
     Track quality 100.0 %
     Test CRC 9D60DDCA
     Copy CRC 9D60DDCA
     Copy OK

Track  4
     Filename F:\upload\Wes Montgomery - SO Much Guitar! (1961) [FLAC]\04 - I'm Just A Lucky So And So.wav

     Pre-gap length  0:00:02.00

     Peak level 91.1 %
     Track quality 100.0 %
     Test CRC 646AB051
     Copy CRC 646AB051
     Copy OK

Track  5
     Filename F:\upload\Wes Montgomery - SO Much Guitar! (1961) [FLAC]\05 - Repetition.wav

     Pre-gap length  0:00:02.00

     Peak level 93.4 %
     Track quality 100.0 %
     Test CRC C092AD39
     Copy CRC C092AD39
     Copy OK

Track  6
     Filename F:\upload\Wes Montgomery - SO Much Guitar! (1961) [FLAC]\06 - Something Like Bags.wav

     Pre-gap length  0:00:02.00

     Peak level 88.2 %
     Track quality 100.0 %
     Test CRC D5218931
     Copy CRC D5218931
     Copy OK

Track  7
     Filename F:\upload\Wes Montgomery - SO Much Guitar! (1961) [FLAC]\07 - While We're Young.wav

     Pre-gap length  0:00:02.00

     Peak level 61.2 %
     Track quality 100.0 %
     Test CRC 7A1C34A7
     Copy CRC 7A1C34A7
     Copy OK

Track  8
     Filename F:\upload\Wes Montgomery - SO Much Guitar! (1961) [FLAC]\08 - One For My Baby (And One More For The Road).wav

     Pre-gap length  0:00:02.00

     Peak level 85.4 %
     Track quality 100.0 %
     Test CRC 57BA44A7
     Copy CRC 57BA44A7
     Copy OK

No errors occured


End of status report
Содержание индексной карты (.CUE)
REM DISCID 71094708
REM COMMENT "ExactAudioCopy v0.95b4"
PERFORMER "Wes Montgomery"
TITLE "SO Much Guitar!"
FILE "01 - Twisted Blues.wav" WAVE
  TRACK 01 AUDIO
    TITLE "Twisted Blues"
    PERFORMER "Wes Montgomery"
    INDEX 01 00:00:00
  TRACK 02 AUDIO
    TITLE "Cotton Tail"
    PERFORMER "Wes Montgomery"
    INDEX 00 05:34:69
FILE "02 - Cotton Tail.wav" WAVE
    INDEX 01 00:00:00
  TRACK 03 AUDIO
    TITLE "I Wish I Knew"
    PERFORMER "Wes Montgomery"
    INDEX 00 03:39:13
FILE "03 - I Wish I Knew.wav" WAVE
    INDEX 01 00:00:00
  TRACK 04 AUDIO
    TITLE "I'm Just A Lucky So And So"
    PERFORMER "Wes Montgomery"
    INDEX 00 05:29:21
FILE "04 - I'm Just A Lucky So And So.wav" WAVE
    INDEX 01 00:00:00
  TRACK 05 AUDIO
    TITLE "Repetition"
    PERFORMER "Wes Montgomery"
    INDEX 00 05:56:00
FILE "05 - Repetition.wav" WAVE
    INDEX 01 00:00:00
  TRACK 06 AUDIO
    TITLE "Something Like Bags"
    PERFORMER "Wes Montgomery"
    INDEX 00 03:54:20
FILE "06 - Something Like Bags.wav" WAVE
    INDEX 01 00:00:00
  TRACK 07 AUDIO
    TITLE "While We're Young"
    PERFORMER "Wes Montgomery"
    INDEX 00 04:47:55
FILE "07 - While We're Young.wav" WAVE
    INDEX 01 00:00:00
  TRACK 08 AUDIO
    TITLE "One For My Baby (And One More For The Road)"
    PERFORMER "Wes Montgomery"
    INDEX 00 02:16:22
FILE "08 - One For My Baby (And One More For The Road).wav" WAVE
    INDEX 01 00:00:00
Приватный:
Нет (DHT включён)
Размер:
219.72 Мб (230,394,680 байт) » файлов: 16
Участники:
6 раздают, 0 качают (6 участников всего)
Внешние участники:
2 раздают, 1 качают (3 участников всего) [ Обновить ]
For power users only: no seeders - write to support@pro-jazz.com. Для power user: нет сидеров - пишите на support@pro-jazz.com.
14:27
720
Нет комментариев. Ваш будет первым!