Поиск

1961 Gerry Mulligan and the Concert Jazz Band - At the Village Vanguard (2014) {HDTT} [24-96]

1961 Gerry Mulligan and the Concert Jazz Band - At the Village Vanguard (2014) {HDTT} [24-96]
Дата записи диска:
1 декабря 1960
Место записи:
Village Vanguard, New York City, NY, USA
Носитель:
WEB
Формат:
PCM
Тип рипа:
tracks
Контейнер:
FLAC (*.flac)
Количество каналов:
2.0
Разрядность/ЧД:
24/96
Битрейт аудио:
lossless
Время звучания:
00:40:30
Наличие сканов:
буклет pdf
Треклист:

01 - Blueport 11:00
02 - Body and Soul 05:42
03 - Black Nightgown 04:06
04 - Come Rain or Come Shine 05:29
05 - Lady Chatterley's Mother 06:11
06 - Let My People Be 08:02

Состав:
  • Bob Donovan (Alto Saxophone)
  • Gerry Mulligan — Tracks: 1 to 5 (Baritone Saxophone)
  • Gene Allen (Baritone Saxophone & Bass Clarinet)
  • Bill Crow (Bass)
  • Gene Quill (Clarinet & Alto Saxophone)
  • Mel Lewis (Drums)
  • Jim Reider (Tenor Saxophone)
  • Alan Ralph, Willie Dennis (Trombone)
  • Bob Brookmeyer (Trombone [Valve])
  • Clark Terry, Don Ferrara & Nick Travis (Trumpet)
Лог проверки качества
foobar2000 1.4.8 / Dynamic Range Meter 1.1.1
log date: 2019-11-17 15:19:46

--------------------------------------------------------------------------------
Analyzed: Gerry Mulligan and the Concert Jazz Band / Gerry Mulligan and the Concert Jazz Band at the Village Vanguard
--------------------------------------------------------------------------------

DR         Peak         RMS     Duration Track
--------------------------------------------------------------------------------
DR11      -2.08 dB   -17.03 dB     11:01 01-Blueport
DR13      -2.69 dB   -20.03 dB      5:43 02-Body and Soul
DR10      -2.20 dB   -17.34 dB      4:06 03-Black Nightgown
DR11      -2.95 dB   -17.38 dB      5:30 04-Come Rain or Come Shine
DR12      -0.01 dB   -15.47 dB      6:11 05-Lady Chatterley's Mother
DR12      -0.98 dB   -17.19 dB      8:02 06-Let My People Be
--------------------------------------------------------------------------------

Number of tracks:  6
Official DR value: DR12

Samplerate:        96000 Hz
Channels:          2
Bits per sample:   24
Bitrate:           2897 kbps
Codec:             FLAC
================================================================================
По всем вопросам пишите личное сообщение пользователю M0p94ok.
13:47
265
Нет комментариев. Ваш будет первым!