Вы используете незарегистрированную версию компонента "Вкладки"!

Поиск

1961 Freddie Hubbard - Cry Me Not (Hub Cap) (2019) {Jazz Extension} [24-44,1]

1961 Freddie Hubbard - Cry Me Not (Hub Cap) (2019) {Jazz Extension} [24-44,1]
Стили:
Доп. инфо:

Формат записи/Источник записи: [TR24][OF]
Издание: Remastered
Год издания/переиздания диска: 1961/2019
Издатель (лейбл): Jazz Extension
Продолжительность: 00:49:32
Наличие сканов в содержимом раздачи: Нет

Контейнер: FLAC (*.flac)
Тип рипа: tracks
Разрядность: 24/44,1
Количество каналов: 2.0

Источник (релизер): Qobuz

Лог проверки качества
foobar2000 1.4.3 / Dynamic Range Meter 1.1.1
log date: 2019-12-12 10:38:05

--------------------------------------------------------------------------------
Analyzed: Freddie Hubbard / Cry Me Not
--------------------------------------------------------------------------------

DR         Peak         RMS     Duration Track
--------------------------------------------------------------------------------
DR8       -1.08 dB   -11.01 dB      4:49 01, 01-Cry Me Not (24 Bit Remastered)
DR8       -1.10 dB   -10.65 dB     10:05 02, 02-Luana (24 Bit Remastered)
DR8       -1.81 dB   -11.99 dB      7:12 03, 03-Open Sesame (24 Bit Remastered)
DR9       -1.20 dB   -10.98 dB      6:17 04, 04-Earmon Jr. (24 Bit Remastered)
DR9       -1.01 dB   -10.87 dB      9:02 05, 05-Plexus (24 Bit Remastered)
DR9       -1.05 dB   -10.84 dB      6:54 06, 06-Osie Mae (24 Bit Remastered)
DR9       -1.06 dB   -11.10 dB      5:17 07, 07-Hub Cap (24 Bit Remastered)
--------------------------------------------------------------------------------

Number of tracks:  7
Official DR value: DR8

Samplerate:        44100 Hz
Channels:          2
Bits per sample:   24
Bitrate:           1765 kbps
Codec:             FLAC
================================================================================
Any questions - support@pro-jazz.com. Есть вопросы - support@pro-jazz.com
12:31
209
Нет комментариев. Ваш будет первым!