Вы используете незарегистрированную версию компонента "Вкладки"!

Поиск

1961 Erroll Garner - Closeup In Swing (2019) {Mack Avenue} [24-96]

1961 Erroll Garner - Closeup In Swing (2019) {Mack Avenue} [24-96]
Стили:
Издатель (лейбл):
Доп. инфо:

https://www.discogs.com/Erroll-Garner-Close-Up-In-Swing/release/14599929

Формат записи/Источник записи: [TR24][OF]
Наличие водяных знаков: Нет
Издание: Remastered
Год издания/переиздания диска: 1961/2019
Продолжительность: 44:15
Наличие сканов в содержимом раздачи: Только обложка альбома

Контейнер: FLAC (*.flac)
Тип рипа: tracks
Разрядность: 24/96
Формат: PCM
Количество каналов: 2.0

Источник: highresaudio.com

Лог проверки качества
foobar2000 1.3.9 / Dynamic Range Meter 1.1.1
log date: 2020-01-04 19:51:39

--------------------------------------------------------------------------------
Analyzed: Erroll Garner / Closeup In Swing
--------------------------------------------------------------------------------

DR         Peak         RMS     Duration Track
--------------------------------------------------------------------------------
DR10      -0.56 dB   -12.83 dB      3:18 01-You Do Something To Me
DR12      -0.64 dB   -16.73 dB      4:09 02-My Silent Love
DR9       -1.33 dB   -13.57 dB      2:25 03-All Of Me
DR11      -0.50 dB   -15.07 dB      4:08 04-No More Shadows
DR10      -0.55 dB   -13.95 dB      6:31 05-St. Louis Blues
DR9       -0.92 dB   -12.22 dB      3:15 06-Some Of These Days
DR12      -0.50 dB   -15.52 dB      4:29 07-I'm In The Mood For Love
DR10      -0.53 dB   -13.06 dB      4:14 08-El Papa Grande
DR9       -1.04 dB   -13.79 dB      3:32 09-The Best Things In Life Are Free
DR10      -0.50 dB   -12.83 dB      3:52 10-Back in Your Own Backyard
DR11      -0.52 dB   -13.81 dB      4:23 11-Octave 103
--------------------------------------------------------------------------------

Number of tracks:  11
Official DR value: DR10

Samplerate:        96000 Hz
Channels:          2
Bits per sample:   24
Bitrate:           2854 kbps
Codec:             FLAC
================================================================================
Any questions - support@pro-jazz.com. Есть вопросы - support@pro-jazz.com
14:33
316
Нет комментариев. Ваш будет первым!