Поиск

1961 Bill Evans Trio - Explorations (1987) {Riverside OJC 25218603720}

1961 Bill Evans Trio - Explorations (1987) {Riverside OJC 25218603720}

Треклист:

Страна-производитель диска (релиза): EU
Дата записи диска: 2 февраля 1961
Дата издания диска: 1961
Дата переиздания диска: 1 января 1987
Номер по каталогу: 00025218603720
Носитель: CD
Битрейт аудио: lossless
Аудиокодек: APE (*.ape)
Тип рипа: image + .cue
Время звучания: 51:00
Наличие сканов: да
Релизёр (источник): ordo

Треклист:
01. Israel (6:08)
02. Haunted Heart (3:25)
03. Beautiful Love (Take 2) (5:03)
04. Beautiful Love (Take 1) (5:58)
05. Elsa (5:05)
06. Nardis (5:48)
07. How Deep Is The Ocean? (3:30)
08. I Wish I Knew (4:39)
09. Sweet And Lovely (5:50)
10. The Boy Next Door (5:06)

Состав:
  • Bill Evans Piano
  • Orrin Keepnews Liner Notes, Producer
  • Scott LaFaro Bass
  • Paul Motian Drums
  • Bill Stoddard Engineer

Recorded at Bell Sound Studios, New York, New York on February 2, 1961. Originally released on Riverside (9351). Includes liner notes by Orrin Keepnews.
Digitally remastered by David Luke (Fantasy Studios, Berkeley, California).

 
Лог создания рипа

Exact Audio Copy V0.99 prebeta 2 from 28. July 2007
Отчёт EAC об извлечении, выполненном 7. октября 2007, 1:45
Bill Evans Trio / Explorations
Дисковод: HL-DT-STDVDRAM GSA-4167B Adapter: 0 ID: 0
Режим чтения: Достоверность
Использование точного потока: Да
Отключение кэша аудио: Да
Использование указателей C2: Нет
Коррекция смещения при чтении: 667
Способность читать области Lead-in и Lead-out: Нет
Заполнение пропущенных сэмплов тишиной: Да
Удаление блоков с тишиной в начале и конце: Нет
При вычислениях CRC использовались нулевые сэмплы: Да
Интерфейс: Установленный внешний ASPI-интерфейс
Выходной формат: Внутренние WAV-операции
Формат сэмплов: 44.100 Гц; 16 бит; стерео
TOC извлечённого CD
Трек | Старт | Длительность | Начальный сектор | Конечный сектор
---------------------------------------------------------------------
1 | 0:00.00 | 6:11.47 | 0 | 27871
2 | 6:11.47 | 3:28.00 | 27872 | 43471
3 | 9:39.47 | 5:07.53 | 43472 | 66549
4 | 14:47.25 | 6:06.32 | 66550 | 94031
5 | 20:53.57 | 5:10.73 | 94032 | 117354
6 | 26:04.55 | 5:51.02 | 117355 | 143681
7 | 31:55.57 | 3:34.00 | 143682 | 159731
8 | 35:29.57 | 4:41.38 | 159732 | 180844
9 | 40:11.20 | 5:54.37 | 180845 | 207431
10 | 46:05.57 | 5:05.55 | 207432 | 230361
Характеристики диапазона извлечения и сообщения об ошибках
Выбранный диапазон
Имя файла H:\Muzlo\JAZZ\BIG JAZZ\RIPER-CUTTER\Bill Evans Trio — Explorations — 1961 {Riverside}.wav
Пиковый уровень 100.0 %
Качество диапазона 100.0 %
CRC копии CDA6D366
Копирование… OK
Ошибок не произошло
AccurateRip: сводка
Трек 1 точное извлечение (доверие 2) [FCEE954D]
Трек 2 точное извлечение (доверие 1) [7D2B60BA]
Трек 3 точное извлечение (доверие 1) [3B42200E]
Трек 4 точное извлечение (доверие 1) [7D81AED8]
Трек 5 точное извлечение (доверие 1) [87CE71A1]
Трек 6 точное извлечение (доверие 1) [8178B9EA]
Трек 7 точное извлечение (доверие 1) [DDBBB860]
Трек 8 точное извлечение (доверие 1) [A204F882]
Трек 9 точное извлечение (доверие 1) [F97F7ED4]
Трек 10 точное извлечение (доверие 1) [87F07673]
Все треки извлечены точно
Конец отчёта

 

По всем вопросам пишите личное сообщение пользователю M0p94ok.
21:56
801
Нет комментариев. Ваш будет первым!