Поиск

1961 (1993) Walt Dickerson - This Is Walt Dickerson! {Prestige OJC OJCD-1817-2 (NJ-8254)}

1961 (1993) Walt Dickerson - This Is Walt Dickerson! {Prestige OJC OJCD-1817-2 (NJ-8254)}
Страна-производитель диска (релиза):
USA
Дата записи диска:
7 марта 1961
Дата издания диска:
1993
Номер по каталогу:
OJCD-1817-2 (NJ-8254)
Носитель:
CD
Битрейт аудио:
lossless
Аудиокодек:
FLAC (*.flac)
Тип рипа:
tracks
Время звучания:
38:14
Наличие сканов:
  • да
Релизёр (источник):
AlexMachen
Треклист:

01 - Time (6:34)
02 - Elizabeth (5:10)
03 - The Cry (7:03)
04 - Death And Taxes (6:09)
05 - Evelyn (6:17)
06 - Infinite You (7:01)

Состав:
<spoiler title="Лог создания рипа"><pre>EAC extraction logfile from 1. December 2007, 12:42 for CD
Walt Dickerson / This Is Walt Dickerson!
Used drive : HL-DT-STDVDRAM GSA-4163B Adapter: 1 ID: 1
Read mode : Secure with NO C2, accurate stream, disable cache
Read offset correction : 667
Overread into Lead-In and Lead-Out : No
Used output format : Internal WAV Routines
44.100 Hz; 16 Bit; Stereo
Other options :
Fill up missing offset samples with silence : Yes
Delete leading and trailing silent blocks : No
Installed external ASPI interface
Track 1
Filename D:\Walt Dickerson - This Is Walt Dickerson! (1961)[FLAC]{OJC}\01 - Time.wav
Pre-gap length 0:00:02.00
Peak level 100.0 %
Track quality 100.0 %
Test CRC F792D946
Copy CRC F792D946
Copy OK
Track 2
Filename D:\Walt Dickerson - This Is Walt Dickerson! (1961)[FLAC]{OJC}\02 - Elizabeth.wav
Pre-gap length 0:00:05.02
Peak level 83.2 %
Track quality 99.9 %
Test CRC 0B947251
Copy CRC 0B947251
Copy OK
Track 3
Filename D:\Walt Dickerson - This Is Walt Dickerson! (1961)[FLAC]{OJC}\03 - The Cry.wav
Pre-gap length 0:00:01.03
Peak level 100.0 %
Track quality 100.0 %
Test CRC D89D1370
Copy CRC D89D1370
Copy OK
Track 4
Filename D:\Walt Dickerson - This Is Walt Dickerson! (1961)[FLAC]{OJC}\04 - Death And Taxes.wav
Pre-gap length 0:00:02.23
Peak level 100.0 %
Track quality 100.0 %
Test CRC 3F659F46
Copy CRC 3F659F46
Copy OK
Track 5
Filename D:\Walt Dickerson - This Is Walt Dickerson! (1961)[FLAC]{OJC}\05 - Evelyn.wav
Pre-gap length 0:00:02.41
Peak level 100.0 %
Track quality 100.0 %
Test CRC 98E2F843
Copy CRC 98E2F843
Copy OK
Track 6
Filename D:\Walt Dickerson - This Is Walt Dickerson! (1961)[FLAC]{OJC}\06 - Infinite You.wav
Pre-gap length 0:00:02.58
Peak level 100.0 %
Track quality 100.0 %
Test CRC AD6E3E39
Copy CRC AD6E3E39
Copy OK
No errors occured
End of status report</pre></spoiler>
Приватный:
Нет (DHT включён)
Размер:
247.12 Мб (259,122,774 байт) » файлов: 13
Участники:
0 раздают, 0 качают (0 участников всего)
Внешние участники:
Нет внешних трекеров [ Обновить ]
Скорость:
Торрент не зарегистрирован на трекере
17:50
67
RSS
Нет комментариев. Ваш будет первым!