Поиск

1961, 1963 Claude Hopkins - Lowdown (2020) {Nagel Heyer} [24-44,1]

1961, 1963 Claude Hopkins - Lowdown (2020) {Nagel Heyer} [24-44,1]
Издатель (лейбл):
Битрейт аудио:
lossless
Доп. инфо:

Формат записи/Источник записи: [TR24][OF]
Издание: Remastered
Год издания/переиздания диска: 1961,1963/2020
Продолжительность: 01:28:53
Наличие сканов в содержимом раздачи: Нет

Контейнер: FLAC (*.flac)
Тип рипа: tracks
Разрядность: 24/44,1
Количество каналов: 2.0

Источник (релизер): Qobuz

Лог проверки качества
foobar2000 1.4.3 / Dynamic Range Meter 1.1.1
log date: 2020-10-28 18:52:01

--------------------------------------------------------------------------------
Analyzed: Claude Hopkins / Lowdown
--------------------------------------------------------------------------------

DR         Peak         RMS     Duration Track
--------------------------------------------------------------------------------
DR13      -1.00 dB   -16.41 dB      3:51 01-I Apologize
DR11      -1.00 dB   -14.99 dB      4:50 02-Love Me or Leave Me
DR14      -1.00 dB   -18.04 dB      5:02 03-Offbeat Blues
DR11      -1.00 dB   -15.14 dB      4:28 04-Crying My Heart out for You
DR12      -1.00 dB   -15.63 dB      5:18 05-The Way You Look Tonight
DR9       -1.00 dB   -12.02 dB      2:54 06-Just You, Just Me
DR10      -1.00 dB   -14.92 dB      5:04 07-Mitzi
DR10      -1.00 dB   -14.72 dB      6:19 08-Stormy Weather
DR12      -1.00 dB   -15.72 dB      4:03 09-(I Would Do) Anything for You
DR11      -1.00 dB   -15.00 dB      5:54 10-On the Sunny Side of the Street
DR10      -1.00 dB   -12.41 dB      3:09 11-Washington Squabble
DR9       -1.00 dB   -12.02 dB      3:14 12-Three Little Words
DR14      -1.00 dB   -17.17 dB      4:27 13-I Surrender, Dear
DR12      -1.00 dB   -15.47 dB      5:46 14-I Cried for You
DR11      -1.00 dB   -15.15 dB      6:17 15-Somebody Loves Me
DR8       -1.00 dB   -11.30 dB      3:03 16-Ain't Misbehavin'
DR12      -1.00 dB   -16.37 dB      6:37 17-Late Evening
DR8       -1.00 dB   -11.34 dB      3:05 18-(I Would Do) Anything for You II
DR11      -1.00 dB   -14.46 dB      5:46 19-Safari Stomp
--------------------------------------------------------------------------------

Number of tracks:  19
Official DR value: DR11

Samplerate:        44100 Hz
Channels:          2
Bits per sample:   24
Bitrate:           1738 kbps
Codec:             FLAC
================================================================================
No seeders - write personal message to M0p94ok. Any questions - support@pro-jazz.com.
Нет сидеров - пишите в личку M0p94ok. Есть вопросы - support@pro-jazz.com
19:53
224
Нет комментариев. Ваш будет первым!