Поиск

1960 The Al Cohn - Zoot Sims Quintet - You' n' Me (2002) {Verve 589 318-2}

1960 The Al Cohn - Zoot Sims Quintet - You' n' Me (2002) {Verve 589 318-2}
Стили:
Издатель (лейбл):

Треклист:

Страна-производитель диска (релиза): USA
Дата записи диска: 1-3 июня 1960
Дата издания диска: 1960
Дата переиздания диска: 2002
Номер по каталогу: 589 318-2
Носитель: CD
Битрейт аудио: lossless
Аудиокодек: WavPack (*.wv)
Тип рипа: img+.cue
Время звучания: 37:05
Наличие сканов: да
Релизёр (источник): Stormhunter

Треклист:
01. The Note 4:08
02. You'd Be So Nice to Come Home To 4:48
03. You 'n' Me 4:36
04. On the Alamo 4:31
05. The Opener 3:41
06. Angel Eyes 3:13
07. Awful Lonely 4:15
08. Love for Sale 4:54
09. Improvisation for Unaccompanied Saxophones 2:24

Состав:
 
Лог создания рипа

EAC extraction logfile from 8. January 2007, 17:21 for CD
The Al Cohn — Zoot Sims Quintet / You 'n' Me

Used drive  : HL-DT-STDVDRAM GSA-4165B   Adapter: 0  ID: 0
Read mode  : Secure with NO C2, accurate stream, disable cache
Read offset correction: 667
Overread into Lead-In and Lead-Out: No

Used output format: Internal WAV Routines
                     44.100 Hz; 16 Bit; Stereo
                     Use compression offset: 30

Other options      : 
    Fill up missing offset samples with silence: Yes
    Delete leading and trailing silent blocks: No
    Installed external ASPI interface


Range status and errors
Selected range
     Filename C:\The Al Cohn — Zoot Sims Quintet — You 'n' Me.wav

     Peak level 100.0 %
     Range quality 100.0 %
     CRC 0F54A69C
     Copy OK

No errors occured

End of status report
 

 
Содержание индексной карты (.CUE)

REM GENRE Jazz
REM DATE 2002
REM DISCID 6808B109
REM COMMENT "ExactAudioCopy v0.95b4"
PERFORMER "The Al Cohn — Zoot Sims Quintet"
TITLE "You 'n' Me"
FILE "The Al Cohn — Zoot Sims Quintet — You 'n' Me.wv" WAVE
  TRACK 01 AUDIO
    TITLE "The Note"
    PERFORMER "The Al Cohn — Zoot Sims Quintet"
    INDEX 01 00:00:00
  TRACK 02 AUDIO
    TITLE "You'll Be So nice To Come Home To"
    PERFORMER "The Al Cohn — Zoot Sims Quintet"
    INDEX 00 04:08:28
    INDEX 01 04:11:57
  TRACK 03 AUDIO
    TITLE "You 'n' Me"
    PERFORMER "The Al Cohn — Zoot Sims Quintet"
    INDEX 00 09:00:16
    INDEX 01 09:03:35
  TRACK 04 AUDIO
    TITLE "On the Alamo"
    PERFORMER "The Al Cohn — Zoot Sims Quintet"
    INDEX 00 13:40:04
    INDEX 01 13:43:60
  TRACK 05 AUDIO
    TITLE "The Opener"
    PERFORMER "The Al Cohn — Zoot Sims Quintet"
    INDEX 00 18:14:71
    INDEX 01 18:20:52
  TRACK 06 AUDIO
    TITLE "Angel Eyes"
    PERFORMER "The Al Cohn — Zoot Sims Quintet"
    INDEX 00 22:01:71
    INDEX 01 22:05:65
  TRACK 07 AUDIO
    TITLE "Awful Lonely"
    PERFORMER "The Al Cohn — Zoot Sims Quintet"
    INDEX 00 25:19:30
    INDEX 01 25:23:35
  TRACK 08 AUDIO
    TITLE "Love for Sale"
    PERFORMER "The Al Cohn — Zoot Sims Quintet"
    INDEX 00 29:38:73
    INDEX 01 29:42:35
  TRACK 09 AUDIO
    TITLE "Improvisation for Unaccompanied Saxophones"
    PERFORMER "The Al Cohn — Zoot Sims Quintet"
    INDEX 00 34:37:10
    INDEX 01 34:41:40
 

 

Download available for power users only.
22:44
973
Нет комментариев. Ваш будет первым!