Поиск

1960 Betty Roché - Singin' & Swingin' (2021) {Music Manager} [24-48]

1960 Betty Roché - Singin' & Swingin' (2021) {Music Manager} [24-48]
Стили:
Дата переиздания диска:
30 июля 2021
Издатель (лейбл):
Носитель:
WEB
Формат:
PCM
Тип рипа:
tracks
Контейнер:
FLAC (*.flac)
Количество каналов:
2.0
Разрядность/ЧД:
24/48
Битрейт аудио:
lossless
Время звучания:
00:30:38
Наличие сканов:
только обложка

Треклист:

01 - Come Rain or Come Shine 03:53
02 - A Foggy Day 03:41
03 - Day by Day 03:58
04 - When I Fall in Love 03:22
05 - Blue Moon 03:05
06 - Where or When 03:00
07 - September Song 02:12
08 - Until the Real Thing Comes Along 04:14
09 - Billie's Bounce 03:13

Состав:
  • Betty Roché – vocals
  • Jimmy Forrest – tenor saxophone
  • Jack McDuff – organ
  • Bill Jennings – guitar
  • Wendell Marshall – double bass
  • Roy Haynes – drums
Доп. инфо:

Бетти Роше должна была стать гораздо более известной. У нее было два едва задокументированных периода работы с оркестром Дюка Эллингтона, она записала три отличных альбома в качестве лидера в 1956-1961 годах (все они доступны на CD), но затем растворилась в полной безвестности. В этом переиздании (на котором ошибочно указана неверная дата 24 января 1961 года, что на самом деле является следующим релизом Роше) певец играет с тенор-саксофонистом Джимми Форрестом, органистом Джеком Макдаффом (в самом начале своей карьеры), гитаристом Биллом Дженнингсом, басистом Венделлом Маршаллом и барабанщиком Роем Хейнсом. Роше исполняет девять известных стандартов, придумывая свежие вариации фразировки для таких номеров, как "Come Rain or Come Shine", "When I Fall in Love", "Blue Moon" и "Billie's Bounce". Рекомендуется, как и все остальные записи в ее небольшой дискографии.

Лог проверки качества
foobar2000 1.4.3 / Dynamic Range Meter 1.1.1
log date: 2021-12-24 16:18:25
--------------------------------------------------------------------------------
Analyzed: Betty Roché / Singin' & Swingin'
--------------------------------------------------------------------------------
DR         Peak         RMS     Duration Track
--------------------------------------------------------------------------------
DR13      -0.03 dB   -16.91 dB      3:53 01-Come Rain or Come Shine
DR13      -0.06 dB   -16.53 dB      3:42 02-A Foggy Day
DR14       0.00 dB   -18.72 dB      3:59 03-Day by Day
DR13      -0.05 dB   -17.10 dB      3:22 04-When I Fall in Love
DR14      -0.48 dB   -18.39 dB      3:05 05-Blue Moon
DR15       0.00 dB   -17.62 dB      3:00 06-Where or When
DR16      -0.02 dB   -19.58 dB      2:12 07-September Song
DR14      -0.05 dB   -17.51 dB      4:15 08-Until the Real Thing Comes Along
DR13      -0.49 dB   -17.13 dB      3:14 09-Billie's Bounce
--------------------------------------------------------------------------------
Number of tracks:  9
Official DR value: DR14
Samplerate:        48000 Hz
Channels:          2
Bits per sample:   24
Bitrate:           1223 kbps
Codec:             FLAC
================================================================================
Download available for power users only.
To become a power user - read FAQ.
14:24
149
Нет комментариев. Ваш будет первым!