Поиск

1959 Wild Bill Davis - Flying High with Wild Bill Davis (2019) {Everest} [24-44.1]

1959 Wild Bill Davis - Flying High with Wild Bill Davis (2019) {Everest} [24-44.1]
Стили:
Дата издания диска:
21 ноября 1959
Носитель:
WEB
Формат:
PCM
Тип рипа:
tracks
Контейнер:
FLAC (*.flac)
Количество каналов:
2.0
Разрядность/ЧД:
24/44,1
Битрейт аудио:
lossless
Время звучания:
00:27:02
Наличие сканов:
только обложка

01 - I Want a Little Girl 02:22
02 - But Not for Me 02:04
03 - Cabato 02:50
04 - The Nearness of You 02:48
05 - Low Bottom 02:31
06 - I've Got the World on a String 02:45
07 - Round About Midnight 03:50
08 - Always 02:24
09 - Satin Doll 02:38
10 - Blues for Joe 02:50

Состав:
  • Drums – Grady Tate
  • Guitar – Bill Jennings
  • Organ – Wild Bill Davis
  • Saxophone – George Clark
Лог проверки качества
foobar2000 1.4.3 / Dynamic Range Meter 1.1.1
log date: 2021-09-14 21:06:50
--------------------------------------------------------------------------------
Analyzed: Wild Bill Davis & His Orchestra / Flying High with Wild Bill Davis
--------------------------------------------------------------------------------
DR         Peak         RMS     Duration Track
--------------------------------------------------------------------------------
DR11      -1.17 dB   -14.57 dB      2:22 01-I Want a Little Girl
DR10      -1.17 dB   -14.76 dB      2:04 02-But Not for Me
DR12      -1.19 dB   -17.60 dB      2:50 03-Cabato
DR12      -1.17 dB   -16.63 dB      2:48 04-The Nearness of You
DR12      -1.29 dB   -17.26 dB      2:32 05-Low Bottom
DR11      -1.17 dB   -14.28 dB      2:46 06-I've Got the World on a String
DR11      -1.17 dB   -16.53 dB      3:51 07-Round About Midnight
DR12      -1.17 dB   -17.17 dB      2:25 08-Always
DR11      -1.17 dB   -14.99 dB      2:38 09-Satin Doll
DR11      -1.17 dB   -15.76 dB      2:50 10-Blues for Joe
--------------------------------------------------------------------------------
Number of tracks:  10
Official DR value: DR11
Samplerate:        44100 Hz
Channels:          2
Bits per sample:   24
Bitrate:           1409 kbps
Codec:             FLAC
================================================================================
17:05
348
Нет комментариев. Ваш будет первым!