Поиск

1959 (1994) Gerry Mulligan Quartet - What Is There to Say? {Columbia CK 52978}

1959 (1994) Gerry Mulligan Quartet - What Is There to Say? {Columbia CK 52978}
Страна-производитель диска (релиза):
USA
Дата записи диска:
17 декабря 1958 - 15 января 1959
Дата издания диска:
1959
Дата переиздания диска:
1994
Издатель (лейбл):
Номер по каталогу:
CK 52978
Носитель:
CD
Аудиокодек:
FLAC (*.flac)
Тип рипа:
tracks+.cue
Битрейт аудио:
1
Время звучания:
40:41
Релизёр (источник):
mrimidalv

Состав:
  • Dave Bailey    Drums
  • Bill Crow    Bass, Composer
  • John Ephland    Liner Notes
  • Art Farmer    Composer, Trumpet
  • Teo Macero    Original Recording Producer, Producer
  • Gerry Mulligan    Composer, Sax (Baritone)
  • John Snyder    Producer
Лог создания рипа
EAC extraction logfile from 16. October 2006, 15:57 for CD
Gerry Mulligan / What Is There To Say?

Used drive  : PIONEER DVD-RW  DVR-111D   Adapter: 1  ID: 0
Read mode   : Secure with NO C2, accurate stream, disable cache
Read offset correction : 48
Overread into Lead-In and Lead-Out : Yes

Used output format : C:\Program Files\FLAC\flac.exe   (User Defined Encoder)
                     128 kBit/s
                     Additional command line options : -8 -V -T "ARTIST=%a" -T "TITLE=%t" -T "ALBUM=%g" -T "DATE=%y" -T "TRACKNUMBER=%n" -T "GENRE=%m" -T "COMMENT=EAC Flac 1.1.2" %s

Other options      : 
    Fill up missing offset samples with silence : Yes
    Delete leading and trailing silent blocks : No
    Native Win32 interface for Win NT & 2000


Track  1
     Filename E:\Mulligan, Gerry - What Is There To Say (1958) [FLAC] {1994 CK52978 Columbia}\01 - What Is There To Say .wav

     Pre-gap length  0:00:02.00

     Peak level 76.2 %
     Track quality 100.0 %
     Test CRC E25B1D9D
     Copy CRC E25B1D9D
     Copy OK

Track  2
     Filename E:\Mulligan, Gerry - What Is There To Say (1958) [FLAC] {1994 CK52978 Columbia}\02 - Just In Time.wav

     Pre-gap length  0:00:03.66

     Peak level 78.0 %
     Track quality 100.0 %
     Test CRC A22A15E0
     Copy CRC A22A15E0
     Copy OK

Track  3
     Filename E:\Mulligan, Gerry - What Is There To Say (1958) [FLAC] {1994 CK52978 Columbia}\03 - News From Blueport.wav

     Pre-gap length  0:00:03.64

     Peak level 99.1 %
     Track quality 100.0 %
     Test CRC 0402B92B
     Copy CRC 0402B92B
     Copy OK

Track  4
     Filename E:\Mulligan, Gerry - What Is There To Say (1958) [FLAC] {1994 CK52978 Columbia}\04 - Festive Minor.wav

     Pre-gap length  0:00:03.66

     Peak level 75.9 %
     Track quality 100.0 %
     Test CRC 876289C3
     Copy CRC 876289C3
     Copy OK

Track  5
     Filename E:\Mulligan, Gerry - What Is There To Say (1958) [FLAC] {1994 CK52978 Columbia}\05 - As Catch Can.wav

     Pre-gap length  0:00:03.66

     Peak level 98.1 %
     Track quality 100.0 %
     Test CRC 8248655D
     Copy CRC 8248655D
     Copy OK

Track  6
     Filename E:\Mulligan, Gerry - What Is There To Say (1958) [FLAC] {1994 CK52978 Columbia}\06 - My Funny Valentine.wav

     Pre-gap length  0:00:03.66

     Peak level 68.9 %
     Track quality 100.0 %
     Test CRC A84F74BD
     Copy CRC A84F74BD
     Copy OK

Track  7
     Filename E:\Mulligan, Gerry - What Is There To Say (1958) [FLAC] {1994 CK52978 Columbia}\07 - Blueport.wav

     Pre-gap length  0:00:03.66

     Peak level 86.7 %
     Track quality 99.9 %
     Test CRC DD20D85D
     Copy CRC DD20D85D
     Copy OK

Track  8
     Filename E:\Mulligan, Gerry - What Is There To Say (1958) [FLAC] {1994 CK52978 Columbia}\08 - Utter Chaos.wav

     Pre-gap length  0:00:03.66

     Peak level 98.9 %
     Track quality 100.0 %
     Test CRC A965911E
     Copy CRC A965911E
     Copy OK

No errors occured


End of status report
Содержание индексной карты (.CUE)
REM GENRE Jazz
REM DATE 1994
REM DISCID 5F09A608
REM COMMENT "ExactAudioCopy v0.95b4"
PERFORMER "Gerry Mulligan"
TITLE "What Is There To Say?"
FILE "01 - What Is There To Say .wav" WAVE
  TRACK 01 AUDIO
    TITLE "What Is There To Say?"
    PERFORMER "Gerry Mulligan"
    INDEX 01 00:00:00
  TRACK 02 AUDIO
    TITLE "Just In Time"
    PERFORMER "Gerry Mulligan"
    INDEX 00 04:04:40
FILE "02 - Just In Time.wav" WAVE
    INDEX 01 00:00:00
  TRACK 03 AUDIO
    TITLE "News From Blueport"
    PERFORMER "Gerry Mulligan"
    INDEX 00 04:10:57
FILE "03 - News From Blueport.wav" WAVE
    INDEX 01 00:00:00
  TRACK 04 AUDIO
    TITLE "Festive Minor"
    PERFORMER "Gerry Mulligan"
    INDEX 00 05:03:67
FILE "04 - Festive Minor.wav" WAVE
    INDEX 01 00:00:00
  TRACK 05 AUDIO
    TITLE "As Catch Can"
    PERFORMER "Gerry Mulligan"
    INDEX 00 06:13:48
FILE "05 - As Catch Can.wav" WAVE
    INDEX 01 00:00:00
  TRACK 06 AUDIO
    TITLE "My Funny Valentine"
    PERFORMER "Gerry Mulligan"
    INDEX 00 03:54:50
FILE "06 - My Funny Valentine.wav" WAVE
    INDEX 01 00:00:00
  TRACK 07 AUDIO
    TITLE "Blueport"
    PERFORMER "Gerry Mulligan"
    INDEX 00 04:06:30
FILE "07 - Blueport.wav" WAVE
    INDEX 01 00:00:00
  TRACK 08 AUDIO
    TITLE "Utter Chaos"
    PERFORMER "Gerry Mulligan"
    INDEX 00 08:47:00
FILE "08 - Utter Chaos.wav" WAVE
    INDEX 01 00:00:00
Приватный:
Нет (DHT включён)
Размер:
261.62 Мб (274,330,191 байт) » файлов: 18
Участники:
8 раздают, 0 качают (8 участников всего)
Внешние участники:
5 раздают, 1 качают (6 участников всего) [ Обновить ]
23:10
272
Нет комментариев. Ваш будет первым!