Поиск

1958 Lem Winchester and The Ramsey Lewis Trio - Perform A Tribute To Clifford Brown {RevOla} [24-44,1]

1958 Lem Winchester and The Ramsey Lewis Trio - Perform A Tribute To Clifford Brown {RevOla} [24-44,1]
Стили:
Дата записи диска:
8 октября 1958
Место записи:
Chicago
Дата переиздания диска:
18 января 2019
Издатель (лейбл):
Номер по каталогу:
LP 642
Битрейт аудио:
lossless

Треклист:

1. Joy Spring (Remastered)  03:27
2. Where It Is (Remastered)  04:32
3. Sandu (Remastered)  06:15
4. Once In A While (Remastered)  05:32
5. Jordu (Remastered)  03:27
6. It Could Happen To You (Remastered)  03:43
7. Easy To Love (Remastered)  03:38
8. A Message From Boysie (Remastered)  05:10

Доп. инфо:

Формат записи/Источник записи: [TR24][OF]
Издание: Remastered
Год издания/переиздания диска: 1958/2019
Продолжительность: 00:35:44
Наличие сканов в содержимом раздачи: Нет

Контейнер: FLAC (*.flac)
Тип рипа: tracks
Разрядность: 24/44,1
Количество каналов: 2.0

Источник (релизер): Qobuz

Лог проверки качества
foobar2000 1.4.3 / Dynamic Range Meter 1.1.1
log date: 2020-11-05 22:52:15

--------------------------------------------------------------------------------
Analyzed: Lem Winchester / Perform A Tribute To Clifford Brown
--------------------------------------------------------------------------------

DR         Peak         RMS     Duration Track
--------------------------------------------------------------------------------
DR15      -3.21 dB   -21.54 dB      3:28 01-Joy Spring (Remastered)
DR14      -2.83 dB   -19.93 dB      4:33 02-Where It Is (Remastered)
DR14      -3.78 dB   -21.87 dB      6:16 03-Sandu (Remastered)
DR15      -5.94 dB   -24.53 dB      5:32 04-Once In A While (Remastered)
DR17      -4.31 dB   -24.62 dB      3:28 05-Jordu (Remastered)
DR13      -3.53 dB   -20.14 dB      3:43 06-It Could Happen To You (Remastered)
DR15      -2.76 dB   -21.34 dB      3:39 07-Easy To Love (Remastered)
DR16      -5.46 dB   -25.92 dB      5:10 08-A Message From Boysie (Remastered)
--------------------------------------------------------------------------------

Number of tracks:  8
Official DR value: DR15

Samplerate:        44100 Hz
Channels:          2
Bits per sample:   24
Bitrate:           1227 kbps
Codec:             FLAC
================================================================================
Приватный:
Нет (DHT включён)
Размер:
341.37 Мб (357,947,717 байт) » файлов: 13
Участники:
0 раздают, 0 качают (0 участников всего)
Внешние участники:
5 раздают, 1 качают (6 участников всего) [ Обновить ]
No seeders - write personal message to M0p94ok. Нет сидеров - пишите в личку M0p94ok.
17:26
172
Нет комментариев. Ваш будет первым!