Вы используете незарегистрированную версию компонента "Вкладки"!

Поиск

1957 George Hines & Johnny Coco - Hawaiian Room (2016) {Trunk} [24-44,1]

1957 George Hines & Johnny Coco - Hawaiian Room (2016) {Trunk} [24-44,1]
Дата переиздания диска:
1 января 2016
Издатель (лейбл):
Номер по каталогу:
E3498
Носитель:
WEB
Формат:
PCM
Тип рипа:
tracks+.cue
Контейнер:
APE (*.ape)
Количество каналов:
2.0
Разрядность/ЧД:
24/44,1
Битрейт аудио:
lossless
Время звучания:
00:35:52
Наличие сканов:
web
Страна-производитель диска (релиза):
USA
Релизёр (источник):
M0p94ok
Лог проверки качества
foobar2000 1.6.2 / Dynamic Range Meter 1.1.1
log date: 2020-12-20 20:32:34

--------------------------------------------------------------------------------
Analyzed: George Hines & Johnny Coco / Hawaiian Room
--------------------------------------------------------------------------------

DR         Peak         RMS     Duration Track
--------------------------------------------------------------------------------
DR11      -5.14 dB   -20.44 dB      3:23 01-Enchanted Island
DR13      -5.45 dB   -20.77 dB      2:25 02-Huki Lau
DR10      -6.03 dB   -20.12 dB      2:29 03-What Aloha Means To Me
DR12      -6.18 dB   -21.15 dB      2:35 04-Little Grass Shack
DR11      -7.09 dB   -20.89 dB      3:24 05-Ke Kali Nei Au
DR12      -4.69 dB   -20.29 dB      3:02 06-My Hawaiian Song Of Love
DR10      -6.52 dB   -22.21 dB      3:56 07-Kuulei
DR11      -7.72 dB   -21.81 dB      3:09 08-Song OF Old Hawaii
DR14      -2.72 dB   -20.43 dB      2:49 09-Hawaiian Cha Cha Cha
DR11      -8.20 dB   -22.61 dB      2:40 10-Sweet Lelani
DR13      -3.90 dB   -20.47 dB      3:46 11-Maui Girl Of Waikapu
DR13      -5.85 dB   -21.59 dB      2:23 12-Little Brown Gal
--------------------------------------------------------------------------------

Number of tracks:  12
Official DR value: DR12

Samplerate:        44100 Hz
Channels:          2
Bits per sample:   24
Bitrate:           1260 kbps
Codec:             FLAC
================================================================================
Any questions - support@pro-jazz.com. Есть вопросы - support@pro-jazz.com
22:04
225
Нет комментариев. Ваш будет первым!