Поиск

1958 John Coltrane — Soultrane (2002) {Original Jazz Classics OJCCD-021-2} [CD]

1958 John Coltrane — Soultrane (2002) {Original Jazz Classics OJCCD-021-2} [CD]
Стили:
Дата записи диска:
7 февраля 1958
Дата издания диска:
1958
Дата переиздания диска:
2002
Издатель (лейбл):
Номер по каталогу:
OJCCD-021-2
Носитель:
CD
Тип рипа:
tracks
Аудиокодек:
FLAC (*.flac)
Битрейт аудио:
lossless
Время звучания:
39:51
Страна-производитель диска (релиза):
Germany
Релизёр (источник):
JanV

Треклист:

01. Good bait 12:26
02. I want to talk about you 11:10
03. You say you care 6:25
04. Theme for Ernie 5:03
05. Russian lullaby 5:42

Состав:
Лог создания рипа
Отчёт EAC об извлечении, выполненном 24. февраля 2007, 20:11 для диска:
John Coltrane / Soultrane
Дисковод: TSSTcorpCD/DVDW SH-S182D Adapter: 1 ID: 0
Режим чтения: Достоверный (C2: нет, Точный поток: да, Отключение кэша: нет)
Комбинированное смещение чтения/записи: 0
Способность читать области Lead-in и Lead-out : Нет
Выходной формат: Внутренние WAV-операции 44.100 Гц; 16 бит; стерео
Другие параметры: Заполнение пропущенных сэмплов тишиной : Да Удаление блоков с тишиной в начале и конце : Нет Встроенный Win32-интерфейс для Win NT/2000
Трек 1 Имя файла D:\Music\jazz\Coltrane\Soultrane\01 Good bait.wav Пиковый уровень 97.2 % Качество трека 100.0 % CRC копии F0313DA5 Копирование... OK
Трек 2 Имя файла D:\Music\jazz\Coltrane\Soultrane\02 I want to talk about you.wav Пиковый уровень 92.1 % Качество трека 100.0 % CRC копии AB617D4D Копирование... OK
Трек 3 Имя файла D:\Music\jazz\Coltrane\Soultrane\03 You say you care.wav Пиковый уровень 96.9 % Качество трека 100.0 % CRC копии 13DC6C12 Копирование... OK
Трек 4 Имя файла D:\Music\jazz\Coltrane\Soultrane\04 Theme for Ernie.wav Пиковый уровень 94.0 % Качество трека 100.0 % CRC копии 6F4745F4 Копирование... OK
Трек 5 Имя файла D:\Music\jazz\Coltrane\Soultrane\05 Russian lullaby.wav Пиковый уровень 98.0 % Качество трека 100.0 % CRC копии 588FB7F7 Копирование... OK
Ошибок не произошло
Конец отчёта
Лог проверки качества
[CUETools log; Date: 23.11.2012 23:05:13; Version: 2.1.4]
[CTDB TOCID: 3xeJ9.iJ9E4Y2hCjyD4SIeu7DyI-] found.
Track | CTDB Status
  1   | (6/9) Accurately ripped
  2   | (6/9) Accurately ripped
  3   | (6/9) Accurately ripped
  4   | (5/9) Accurately ripped
  5   | (6/9) Accurately ripped
[AccurateRip ID: 000986ab-002aac9e-3a095505] found.
Track   [  CRC   |   V2   ] Status
 01     [8d04533e|c4e7cbd2] (00+00/78) No match
 02     [8ed4702e|b4146ebd] (00+00/76) No match
 03     [c0617c70|f9a269cf] (00+00/77) No match
 04     [9f20daba|f4ec65bf] (00+00/77) No match
 05     [c831f5c6|fd31611f] (00+00/78) No match
Offsetted by -673:
 01     [6e938c72] (07/78) Accurately ripped
 02     [56c0a9ce] (07/76) Accurately ripped
 03     [2f912824] (07/77) Accurately ripped
 04     [797b93b4] (07/77) Accurately ripped
 05     [708ff090] (07/78) Accurately ripped
Offsetted by -65:
 01     [c60f15b2] (08/78) Accurately ripped
 02     [c7094dce] (08/76) Accurately ripped
 03     [05518ca4] (08/77) Accurately ripped
 04     [9f4bd9f4] (07/77) Accurately ripped
 05     [1322226c] (08/78) Accurately ripped
Offsetted by 6:
 01     [3d87ef32] (24/78) Accurately ripped
 02     [c0c7ae6e] (23/76) Accurately ripped
 03     [d1a5e938] (23/77) Accurately ripped
 04     [5057f65e] (24/77) Accurately ripped
 05     [bf6af291] (22/78) Accurately ripped
Track Peak [ CRC32  ] [W/O NULL]
 --   98,0 [8B4DB647] [A2FDDD52]
 01   97,2 [0C22AC50] [F0313DA5]
 02   92,1 [7527C568] [AB617D4D]
 03   96,9 [11AFC6BE] [13DC6C12]
 04   94,0 [13E4F596] [6F4745F4]
 05   98,0 [08C2FEFB] [588FB7F7]
По всем вопросам пишите личное сообщение пользователю M0p94ok.
12:01
1002
Нет комментариев. Ваш будет первым!