Поиск

1958 John Coltrane - Coltrane '58: The Prestige Recordings (2019) {Craft} [24-96]

1958 John Coltrane - Coltrane '58: The Prestige Recordings (2019) {Craft} [24-96]
Стили:
Лог проверки качества
foobar2000 1.4 / Dynamic Range Meter 1.1.1
log date: 2019-03-29 06:23:28

--------------------------------------------------------------------------------
Analyzed: John Coltrane / Coltrane '58: The Prestige Recordings
--------------------------------------------------------------------------------

DR         Peak         RMS     Duration Track
--------------------------------------------------------------------------------
DR12      -1.88 dB   -16.22 dB     13:55 01-Lush Life
DR12      -1.89 dB   -15.74 dB      8:45 02-Come Rain Or Come Shine
DR12      -1.70 dB   -16.19 dB     13:47 03-The Believer
DR11      -1.17 dB   -14.21 dB     11:04 04-Nakatini Serenade
DR10      -1.59 dB   -14.01 dB      7:58 05-Lover
DR11      -1.63 dB   -14.31 dB      5:35 06-Russian Lullaby
DR11      -2.04 dB   -15.65 dB      4:57 07-Theme For Ernie
DR11      -1.23 dB   -14.51 dB      6:17 08-You Say You Care
DR12      -1.18 dB   -15.71 dB     12:09 09-Good Bait
DR11      -1.38 dB   -15.34 dB     10:55 10-I Want To Talk About You
DR12      -1.32 dB   -15.52 dB      5:43 11-Lyresto
DR10      -1.90 dB   -16.95 dB      3:13 12-Why Was I Born
DR11      -0.60 dB   -13.92 dB      7:20 13-Freight Trane
DR11      -1.46 dB   -14.95 dB      7:05 14-I Never Knew
DR12      -1.34 dB   -15.93 dB     14:05 15-Big Paul
DR13      -0.60 dB   -17.56 dB      9:57 16-I See Your Face Before Me
DR13      -0.57 dB   -15.59 dB      7:15 17-Rise ’N’ Shine
DR13      -0.51 dB   -16.43 dB     14:03 18-Little Melonae
DR13      -0.52 dB   -15.86 dB      9:20 19-If There Is Someone Lovelier Than You
DR14      -1.28 dB   -19.27 dB     12:03 20-By The Numbers
DR13      -0.59 dB   -15.69 dB     13:10 21-Black Pearls
DR12      -0.59 dB   -14.77 dB      7:27 22-Lover Come Back To Me
DR13      -0.57 dB   -15.79 dB     18:13 23-Sweet Sapphire Blues
DR14      -0.49 dB   -16.76 dB      6:54 24-Spring Is Here
DR13      -0.58 dB   -17.30 dB     10:21 25-Invitation
DR13      -0.20 dB   -16.76 dB      7:03 26-I'm A Dreamer (Aren't We All)
DR13      -0.59 dB   -15.75 dB      9:24 27-Love Thy Neighbor
DR13      -0.71 dB   -17.33 dB      9:15 28-Don't Take Your Love From Me
DR11      -1.86 dB   -16.51 dB     10:42 29-Stardust
DR13      -0.48 dB   -15.83 dB      7:35 30-My Ideal
DR13      -0.50 dB   -16.14 dB      8:10 31-I'll Get By (As Long As I Have You)
DR12      -0.86 dB   -17.91 dB      5:14 32-Do I Love You Because You're Beautiful?
DR11      -1.90 dB   -16.05 dB      9:30 33-Then I’ll Be Tired Of You
DR12      -1.76 dB   -17.66 dB     10:52 34-Something I Dreamed Last Night
DR11      -0.52 dB   -15.81 dB      6:16 35-Bahia
DR11      -0.50 dB   -14.30 dB      4:45 36-Goldsboro Express
DR12      -1.90 dB   -16.81 dB      7:43 37-Time After Time
--------------------------------------------------------------------------------

Number of tracks:  37
Official DR value: DR12
Samplerate:        96000 Hz
Channels:          2
Bits per sample:   24
Bitrate:           3012 kbps
Codec:             FLAC
================================================================================
No seeders - write personal message to M0p94ok. Any questions - support@pro-jazz.com.
Нет сидеров - пишите в личку M0p94ok. Есть вопросы - support@pro-jazz.com
07:46
456
Нет комментариев. Ваш будет первым!