Поиск

1957 Miles Davis – Birth Of The Cool (2001) {Capitol, Blue Note 7243 5 30117 2 7}

1957 Miles Davis – Birth Of The Cool (2001) {Capitol, Blue Note 7243 5 30117 2 7}
Издатель (лейбл):

Треклист:

Страна-производитель диска (релиза): USA
Дата записи диска: 21 января 1949, 22 апреля 1949 и 9 марта 1950
Дата издания диска: февраль 1957
Дата переиздания диска: 2001
Номер по каталогу: 7243 5 30117 2 7
Носитель: CD
Битрейт аудио: lossless
Аудиокодек: FLAC (*.flac)
Тип рипа: tracks
Время звучания: 35:29
Наличие сканов: да
Релизёр (источник): Ajaks

Треклист:
01. Move 2:32
02. Jeru 3:10
03. Moon Dreams 3:17
04. Venus De Milo 3:10
05. Budo 2:32
06. Deception 2:45
07. Godchild 3:07
08. Boplicity 2:59
09. Rocker 3:03
10. Israel 2:15
11. Rouge 3:13
12. Darn That Dream 3:26

 
Лог создания рипа

EAC extraction logfile from 21. January 2006, 1:02 for CD
Miles Davis / Birth Of The Cool
Used drive : PIONEER DVD-RW DVR-110D Adapter: 2 ID: 0
Read mode : Secure with NO C2, accurate stream, disable cache
Read offset correction : 48
Overread into Lead-In and Lead-Out : Yes
Used output format : c:\Program Files\Exact Audio Copy\flac.exe (User Defined Encoder)
320 kBit/s
Additional command line options : -8 -V -T "ARTIST=%a" -T "TITLE=%t" -T "ALBUM=%g" -T "DATE=%y" -T "TRACKNUMBER=%n" -T "GENRE=%m" -T "COMMENT=EAC 0.95b3 Secure/FLAC 1.1.2 -8 -V" %s
Other options :
Fill up missing offset samples with silence : Yes
Delete leading and trailing silent blocks : No
Native Win32 interface for Win NT & 2000
Track 1
Filename i:\audio\lossless\Miles Davis - Birth Of The Cool (1949) [FLAC]\01 - Move.wav
Pre-gap length 0:00:02.00
Peak level 97.9 %
Track quality 100.0 %
Test CRC 0D2D7409
Copy CRC 0D2D7409
Copy OK
Track 2
Filename i:\audio\lossless\Miles Davis - Birth Of The Cool (1949) [FLAC]\02 - Jeru.wav
Pre-gap length 0:00:02.85
Peak level 97.9 %
Track quality 100.0 %
Test CRC 50A706F7
Copy CRC 50A706F7
Copy OK
Track 3
Filename i:\audio\lossless\Miles Davis - Birth Of The Cool (1949) [FLAC]\03 - Moon Dreams.wav
Pre-gap length 0:00:04.12
Peak level 97.9 %
Track quality 99.9 %
Test CRC 9E2D8807
Copy CRC 9E2D8807
Copy OK
Track 4
Filename i:\audio\lossless\Miles Davis - Birth Of The Cool (1949) [FLAC]\04 - Venus De Milo.wav
Pre-gap length 0:00:03.64
Peak level 97.9 %
Track quality 100.0 %
Test CRC E8549A9F
Copy CRC E8549A9F
Copy OK
Track 5
Filename i:\audio\lossless\Miles Davis - Birth Of The Cool (1949) [FLAC]\05 - Budo.wav
Pre-gap length 0:00:03.70
Peak level 97.9 %
Track quality 99.9 %
Test CRC 62B6D8D5
Copy CRC 62B6D8D5
Copy OK
Track 6
Filename i:\audio\lossless\Miles Davis - Birth Of The Cool (1949) [FLAC]\06 - Deception.wav
Pre-gap length 0:00:02.62
Peak level 97.9 %
Track quality 99.9 %
Test CRC 81493643
Copy CRC 81493643
Copy OK
Track 7
Filename i:\audio\lossless\Miles Davis - Birth Of The Cool (1949) [FLAC]\07 - Godchild.wav
Pre-gap length 0:00:03.84
Peak level 97.9 %
Track quality 100.0 %
Test CRC 4E66803F
Copy CRC 4E66803F
Copy OK
Track 8
Filename i:\audio\lossless\Miles Davis - Birth Of The Cool (1949) [FLAC]\08 - Boplicity.wav
Pre-gap length 0:00:03.88
Peak level 86.8 %
Track quality 100.0 %
Test CRC 1167A7FE
Copy CRC 1167A7FE
Copy OK
Track 9
Filename i:\audio\lossless\Miles Davis - Birth Of The Cool (1949) [FLAC]\09 - Rocker.wav
Pre-gap length 0:00:03.88
Peak level 97.9 %
Track quality 100.0 %
Test CRC FA4C897B
Copy CRC FA4C897B
Copy OK
Track 10
Filename i:\audio\lossless\Miles Davis - Birth Of The Cool (1949) [FLAC]\10 - Israel.wav
Pre-gap length 0:00:03.76
Peak level 97.9 %
Track quality 100.0 %
Test CRC 86ED9F47
Copy CRC 86ED9F47
Copy OK
Track 11
Filename i:\audio\lossless\Miles Davis - Birth Of The Cool (1949) [FLAC]\11 - Rouge.wav
Pre-gap length 0:00:04.34
Peak level 97.9 %
Track quality 100.0 %
Test CRC 6B273130
Copy CRC 6B273130
Copy OK
Track 12
Filename i:\audio\lossless\Miles Davis - Birth Of The Cool (1949) [FLAC]\12 - Darn That Dream.wav
Pre-gap length 0:00:04.17
Peak level 91.5 %
Track quality 100.0 %
Test CRC 0261F8F9
Copy CRC 0261F8F9
Copy OK
No errors occured
End of status report

 

Состав:
Download available for power users only.
13:25
1131
Нет комментариев. Ваш будет первым!