Поиск

1957 Jimmy Smith - Cherokee (1996) {Blue Note,Toshiba-EMI TOCJ-1612} [CD]

1957 Jimmy Smith - Cherokee (1996) {Blue Note,Toshiba-EMI TOCJ-1612} [CD]
Стили:
Дата переиздания диска:
27 ноября 1996
Издатель (лейбл):
Треклист:

01. What Is This Thing Called Love (Porter) - 7:03
02. I'm in the Mood for Love (Fields-McHugh) - 6:25
03. Things Ain't What They Used to Be (Ellington-Persons) - 5:50
04. On the Sunny Side of the Street (Fields-McHugh) - 5:13
05. Laura (Raksin-Mercer) - 5:41
06. Cherokee (Noble) - 4:59
07. Somebody Loves Me (MacDonalds-DeSylva-Gershwin) - 5:42

Лог создания рипа
Exact Audio Copy V1.3 from 2. September 2016
EAC extraction logfile from 5. March 2019, 18:49
Jimmy Smith / Cherokee (Japan BN Works)
Used drive : Optiarc DVD RW AD-5280S Adapter: 1 ID: 0
Read mode : Secure
Utilize accurate stream : Yes
Defeat audio cache : Yes
Make use of C2 pointers : No
Read offset correction : 48
Overread into Lead-In and Lead-Out : No
Fill up missing offset samples with silence : Yes
Delete leading and trailing silent blocks : No
Null samples used in CRC calculations : Yes
Used interface : Native Win32 interface for Win NT & 2000
Gap handling : Appended to previous track
Used output format : User Defined Encoder
Selected bitrate : 1024 kBit/s
Quality : High
Add ID3 tag : No
Command line compressor : C:\Program Files (x86)\Exact Audio Copy\Flac\flac.exe
Additional command line options : -8 -V -T "ARTIST=%artist%" -T "TITLE=%title%" -T "ALBUM=%albumtitle%" -T "DATE=%year%" -T "TRACKNUMBER=%tracknr%" -T "GENRE=%genre%" -T "PERFORMER=%albuminterpret%" -T "COMPOSER=%composer%" %haslyrics%--tag-from-file=LYRICS="%lyricsfile%"%haslyrics% -T "ALBUMARTIST=%albumartist%" -T "DISCNUMBER=%cdnumber%" -T "TOTALDISCS=%totalcds%" -T "TOTALTRACKS=%numtracks%" -T "COMMENT=%comment%" %source% -o %dest%
TOC of the extracted CD
Track | Start | Length | Start sector | End sector
---------------------------------------------------------
1 | 0:00.00 | 7:03.17 | 0 | 31741
2 | 7:03.17 | 6:24.63 | 31742 | 60604
3 | 13:28.05 | 5:49.57 | 60605 | 86836
4 | 19:17.62 | 5:12.50 | 86837 | 110286
5 | 24:30.37 | 5:40.55 | 110287 | 135841
6 | 30:11.17 | 4:59.28 | 135842 | 158294
7 | 35:10.45 | 5:42.17 | 158295 | 183961
Track 1
Filename I:\RIPS EAC\Jimmy Smith - Cherokee (1996) [CD-FLAC] {TOCJ-1612}\01 - What Is This Thing Called Love.wav
Pre-gap length 0:00:02.00
Peak level 99.0 %
Extraction speed 2.6 X
Track quality 100.0 %
Test CRC 05BF390C
Copy CRC 05BF390C
Accurately ripped (confidence 3) [AB42EFEB] (AR v2)
Copy OK
Track 2
Filename I:\RIPS EAC\Jimmy Smith - Cherokee (1996) [CD-FLAC] {TOCJ-1612}\02 - I'm In The Mood For Love.wav
Pre-gap length 0:00:02.93
Peak level 92.6 %
Extraction speed 3.0 X
Track quality 100.0 %
Test CRC 8A69F87C
Copy CRC 8A69F87C
Accurately ripped (confidence 3) [C09A100C] (AR v2)
Copy OK
Track 3
Filename I:\RIPS EAC\Jimmy Smith - Cherokee (1996) [CD-FLAC] {TOCJ-1612}\03 - Things Ain't What They Used To Be.wav
Pre-gap length 0:00:02.53
Peak level 85.5 %
Extraction speed 3.3 X
Track quality 100.0 %
Test CRC 78AA28C7
Copy CRC 78AA28C7
Accurately ripped (confidence 3) [A148C3FB] (AR v2)
Copy OK
Track 4
Filename I:\RIPS EAC\Jimmy Smith - Cherokee (1996) [CD-FLAC] {TOCJ-1612}\04 - On The Sunny Side Of The Street.wav
Pre-gap length 0:00:03.02
Peak level 99.7 %
Extraction speed 3.6 X
Track quality 100.0 %
Test CRC 400D6AB8
Copy CRC 400D6AB8
Accurately ripped (confidence 3) [5D6F901A] (AR v2)
Copy OK
Track 5
Filename I:\RIPS EAC\Jimmy Smith - Cherokee (1996) [CD-FLAC] {TOCJ-1612}\05 - Laura.wav
Pre-gap length 0:00:01.82
Peak level 89.8 %
Extraction speed 3.9 X
Track quality 100.0 %
Test CRC B9C8B38A
Copy CRC B9C8B38A
Accurately ripped (confidence 3) [99768318] (AR v2)
Copy OK
Track 6
Filename I:\RIPS EAC\Jimmy Smith - Cherokee (1996) [CD-FLAC] {TOCJ-1612}\06 - Cherokee.wav
Pre-gap length 0:00:02.09
Peak level 92.5 %
Extraction speed 4.0 X
Track quality 100.0 %
Test CRC 99387E52
Copy CRC 99387E52
Accurately ripped (confidence 3) [5890B473] (AR v2)
Copy OK
Track 7
Filename I:\RIPS EAC\Jimmy Smith - Cherokee (1996) [CD-FLAC] {TOCJ-1612}\07 - Somebody Loves Me.wav
Pre-gap length 0:00:02.64
Peak level 99.6 %
Extraction speed 4.3 X
Track quality 100.0 %
Test CRC FE826B5A
Copy CRC FE826B5A
Accurately ripped (confidence 3) [5AC837DC] (AR v2)
Copy OK
All tracks accurately ripped
No errors occurred
End of status report
---- CUETools DB Plugin V2.1.6
[CTDB TOCID: ZXU.QE1h.67Tkyx7523Ui9n6pJ8-] found
Submit result: ZXU.QE1h.67Tkyx7523Ui9n6pJ8- has been confirmed
Track | CTDB Status
1 | (4/4) Accurately ripped
2 | (4/4) Accurately ripped
3 | (4/4) Accurately ripped
4 | (4/4) Accurately ripped
5 | (4/4) Accurately ripped
6 | (4/4) Accurately ripped
7 | (4/4) Accurately ripped
==== Log checksum D5D1E379B2C0A6741CD5A4FC75D3EF7641A869DEE29BCB46B913ACEAD6EAE9B1 ====
Содержание индексной карты (.CUE)
REM GENRE Jazz
REM DATE 1957
REM DISCID 47099407
REM COMMENT "ExactAudioCopy v1.3"
PERFORMER "Jimmy Smith"
TITLE "Cherokee"
FILE "01 - What Is This Thing Called Love.wav" WAVE
TRACK 01 AUDIO
TITLE "What Is This Thing Called Love"
PERFORMER "Jimmy Smith"
INDEX 01 00:00:00
TRACK 02 AUDIO
TITLE "I'm in the Mood for Love"
PERFORMER "Jimmy Smith"
INDEX 00 07:00:22
FILE "02 - I'm in the Mood for Love.wav" WAVE
INDEX 01 00:00:00
TRACK 03 AUDIO
TITLE "Things Ain't What They Used to Be"
PERFORMER "Jimmy Smith"
INDEX 00 06:22:23
FILE "03 - Things Ain't What They Used to Be.wav" WAVE
INDEX 01 00:00:00
TRACK 04 AUDIO
TITLE "On the Sunny Side of the Street"
PERFORMER "Jimmy Smith"
INDEX 00 05:46:55
FILE "04 - On the Sunny Side of the Street.wav" WAVE
INDEX 01 00:00:00
TRACK 05 AUDIO
TITLE "Laura"
PERFORMER "Jimmy Smith"
INDEX 00 05:10:63
FILE "05 - Laura.wav" WAVE
INDEX 01 00:00:00
TRACK 06 AUDIO
TITLE "Cherokee"
PERFORMER "Jimmy Smith"
INDEX 00 05:38:48
FILE "06 - Cherokee.wav" WAVE
INDEX 01 00:00:00
TRACK 07 AUDIO
TITLE "Somebody Loves Me"
PERFORMER "Jimmy Smith"
INDEX 00 04:56:55
FILE "07 - Somebody Loves Me.wav" WAVE
INDEX 01 00:00:00
Отчет CUETools
[CUETools log; Date: 05.03.2019 23:36:04; Version: 2.1.6]
[CTDB TOCID: ZXU.QE1h.67Tkyx7523Ui9n6pJ8-] found.
Track | CTDB Status
1 | (5/5) Accurately ripped
2 | (5/5) Accurately ripped
3 | (5/5) Accurately ripped
4 | (5/5) Accurately ripped
5 | (5/5) Accurately ripped
6 | (5/5) Accurately ripped
7 | (5/5) Accurately ripped
[AccurateRip ID: 000bb652-00454210-47099407] found.
Track [ CRC | V2 ] Status
01 [90c581cd|ab42efeb] (2+3/5) Accurately ripped
02 [b9390773|c09a100c] (2+3/5) Accurately ripped
03 [b1161409|a148c3fb] (2+3/5) Accurately ripped
04 [129cd95a|5d6f901a] (2+3/5) Accurately ripped
05 [845641ab|99768318] (2+3/5) Accurately ripped
06 [24516f32|5890b473] (2+3/5) Accurately ripped
07 [5108674b|5ac837dc] (2+3/5) Accurately ripped
Track Peak [ CRC32 ] [W/O NULL] [ LOG ]
-- 99,7 [AD040500] [6D01A28A]
01 99,0 [05BF390C] [4376DF09] CRC32
02 92,6 [8A69F87C] [2A4A3DEE] CRC32
03 85,5 [78AA28C7] [5F87BFDF] CRC32
04 99,7 [400D6AB8] [957E9EA6] CRC32
05 89,8 [B9C8B38A] [D67D27BF] CRC32
06 92,5 [99387E52] [1CD30EB6] CRC32
07 99,6 [FE826B5A] [100E1267] CRC32
Приватный:
Нет (DHT включён)
Размер:
199.37 Мб (209,049,933 байт) » файлов: 14
Участники:
17 раздают, 0 качают (17 участников всего)
Внешние участники:
9 раздают, 3 качают (12 участников всего) [ Обновить ]
Никого нет на раздаче - пишите личное сообщение M0p94ok
No seeders - write personal message to M0p94ok
21:04
23
Нет комментариев. Ваш будет первым!