Поиск

1957 George Russell Smalltet - Jazz Workshop (1987) {Bluebird, RCA 6467-2-RB}

1957 George Russell Smalltet - Jazz Workshop (1987) {Bluebird, RCA 6467-2-RB}
Стили:
Издатель (лейбл):

Треклист:

Дата записи: 3 марта - 21 декабря 1956
Место записи: Webster Hall, New York, NY
Дата издания: 1957
Год выпуска диска: 1987
Лейбл: Bluebird/RCA
Аудио кодек: FLAC
Тип рипа: tracks+.cue
Битрейт аудио: lossless
Источник: eD2K
Продолжительность: 00:56:01
Трэклист:
01. Ye Hypocrite, Ye Beelzebub (3:52)
02. Jack's Blues (3:47)
03. Livingstone I Presume (3:26)
04. Ezz-thetic (5:15)
05. Night Sound (3:57)
06. Round Johnny Rondo (3:32)
07. Fellow Delegates (5:41)
08. Witch Hunt (3:51)
09. The Sad Sergeant (3:28)
10. Knights Of The Steamtable (2:37)
11. Ballad Of Hix Blewitt (3:18)
12. Concerto For Billy The Kid (4:46)
13. Ballad Of Hix Blewitt (Alternate Take) (3:45)
14. Concerto For Billy The Kid (Alternate Take) (4:46)

 
EAC log
EAC extraction logfile from 27. July 2006, 20:12 for CD
George Russell / The Jazz Workshop
Used drive : LITE-ON CD-ROM LTN-527T Adapter: 1 ID: 1
Read mode : Secure with NO C2, accurate stream, disable cache
Combined read/write offset correction : 12
Overread into Lead-In and Lead-Out : No
Used output format : C:\Program Files\FLAC\flac.exe (User Defined Encoder)
320 kBit/s
Additional command line options : -5 -V -T "artist=%a" -T "title=%t" -T "album=%g" -T "date=%y" -T "tracknumber=%n" -T "genre=%m" %s
Other options :
Fill up missing offset samples with silence : Yes
Delete leading and trailing silent blocks : No
Native Win32 interface for Win NT & 2000
Track 1
Filename D:\Downloads\George Russell - Jazz Workshop (Bluebird 1956)[FLAC][Scans]\01 - Ye Hypocrite, Ye Beelzebub.wav
Pre-gap length 0:00:02.00
Peak level 64.8 %
Track quality 100.0 %
Test CRC 47A1027D
Copy CRC 47A1027D
Copy OK
Track 2
Filename D:\Downloads\George Russell - Jazz Workshop (Bluebird 1956)[FLAC][Scans]\02 - Jack's Blues.wav
Pre-gap length 0:00:01.33
Peak level 69.6 %
Track quality 99.9 %
Test CRC 00EFA7FE
Copy CRC 00EFA7FE
Copy OK
Track 3
Filename D:\Downloads\George Russell - Jazz Workshop (Bluebird 1956)[FLAC][Scans]\03 - Livingstone I Presume.wav
Pre-gap length 0:00:01.50
Peak level 57.6 %
Track quality 100.0 %
Test CRC 25ADC980
Copy CRC 25ADC980
Copy OK
Track 4
Filename D:\Downloads\George Russell - Jazz Workshop (Bluebird 1956)[FLAC][Scans]\04 - Ezz-thetic.wav
Pre-gap length 0:00:00.60
Peak level 70.9 %
Track quality 100.0 %
Test CRC 8B7CC596
Copy CRC 8B7CC596
Copy OK
Track 5
Filename D:\Downloads\George Russell - Jazz Workshop (Bluebird 1956)[FLAC][Scans]\05 - Night Sound.wav
Pre-gap length 0:00:01.40
Peak level 40.0 %
Track quality 100.0 %
Test CRC 9C5E01C2
Copy CRC 9C5E01C2
Copy OK
Track 6
Filename D:\Downloads\George Russell - Jazz Workshop (Bluebird 1956)[FLAC][Scans]\06 - Round Johnny Rondo.wav
Pre-gap length 0:00:02.66
Peak level 71.1 %
Track quality 99.9 %
Test CRC C43279F6
Copy CRC C43279F6
Copy OK
Track 7
Filename D:\Downloads\George Russell - Jazz Workshop (Bluebird 1956)[FLAC][Scans]\07 - Fellow Delegates.wav
Pre-gap length 0:00:01.60
Peak level 46.0 %
Track quality 99.9 %
Test CRC 6D806C71
Copy CRC 6D806C71
Copy OK
Track 8
Filename D:\Downloads\George Russell - Jazz Workshop (Bluebird 1956)[FLAC][Scans]\08 - Witch Hunt.wav
Pre-gap length 0:00:01.86
Peak level 73.1 %
Track quality 100.0 %
Test CRC 7CAA0EA8
Copy CRC 7CAA0EA8
Copy OK
Track 9
Filename D:\Downloads\George Russell - Jazz Workshop (Bluebird 1956)[FLAC][Scans]\09 - The Sad Sergeant.wav
Pre-gap length 0:00:01.86
Peak level 59.6 %
Track quality 100.0 %
Test CRC 3E1E0370
Copy CRC 3E1E0370
Copy OK
Track 10
Filename D:\Downloads\George Russell - Jazz Workshop (Bluebird 1956)[FLAC][Scans]\10 - Knights Of The Steamtable.wav
Pre-gap length 0:00:01.76
Peak level 79.3 %
Track quality 99.9 %
Test CRC 8DFEA241
Copy CRC 8DFEA241
Copy OK
Track 11
Filename D:\Downloads\George Russell - Jazz Workshop (Bluebird 1956)[FLAC][Scans]\11 - Ballad Of Hix Blewitt.wav
Pre-gap length 0:00:01.86
Peak level 39.3 %
Track quality 100.0 %
Test CRC F580DA46
Copy CRC F580DA46
Copy OK
Track 12
Filename D:\Downloads\George Russell - Jazz Workshop (Bluebird 1956)[FLAC][Scans]\12 - Concerto For Billy The Kid.wav
Pre-gap length 0:00:01.17
Peak level 63.8 %
Track quality 99.9 %
Test CRC 89C6E364
Copy CRC 89C6E364
Copy OK
Track 13
Filename D:\Downloads\George Russell - Jazz Workshop (Bluebird 1956)[FLAC][Scans]\13 - Ballad Of Hix Blewitt (Alternate Take).wav
Pre-gap length 0:00:02.13
Peak level 58.6 %
Track quality 100.0 %
Test CRC 0E853778
Copy CRC 0E853778
Copy OK
Track 14
Filename D:\Downloads\George Russell - Jazz Workshop (Bluebird 1956)[FLAC][Scans]\14 - Concerto For Billy The Kid (Alternate Take).wav
Pre-gap length 0:00:00.66
Peak level 78.2 %
Track quality 100.0 %
Test CRC 9D63AA21
Copy CRC 9D63AA21
Copy OK
No errors occured
End of status report
 
Audiochecker
Started at: Sunday, 08. 03. 2009. - 17:02.59
14 files found
01 -===- Z:\Downloads\George Russell\George Russell - Jazz Workshop (Bluebird 1956)\01 - Ye Hypocrite, Ye Beelzebub.flac
Extracted successfully
Conclusion: this track is CDDA with probability 100%
Tempfile successfully deleted.
02 -===- Z:\Downloads\George Russell\George Russell - Jazz Workshop (Bluebird 1956)\02 - Jack's Blues.flac
Extracted successfully
Conclusion: this track is CDDA with probability 100%
Tempfile successfully deleted.
03 -===- Z:\Downloads\George Russell\George Russell - Jazz Workshop (Bluebird 1956)\03 - Livingstone I Presume.flac
Extracted successfully
Conclusion: this track is CDDA with probability 100%
Tempfile successfully deleted.
04 -===- Z:\Downloads\George Russell\George Russell - Jazz Workshop (Bluebird 1956)\04 - Ezz-thetic.flac
Extracted successfully
Conclusion: this track is CDDA with probability 100%
Tempfile successfully deleted.
05 -===- Z:\Downloads\George Russell\George Russell - Jazz Workshop (Bluebird 1956)\05 - Night Sound.flac
Extracted successfully
Conclusion: this track is CDDA with probability 100%
Tempfile successfully deleted.
06 -===- Z:\Downloads\George Russell\George Russell - Jazz Workshop (Bluebird 1956)\06 - Round Johnny Rondo.flac
Extracted successfully
Conclusion: this track is CDDA with probability 99%
Tempfile successfully deleted.
07 -===- Z:\Downloads\George Russell\George Russell - Jazz Workshop (Bluebird 1956)\07 - Fellow Delegates.flac
Extracted successfully
Conclusion: this track is CDDA with probability 100%
Tempfile successfully deleted.
08 -===- Z:\Downloads\George Russell\George Russell - Jazz Workshop (Bluebird 1956)\08 - Witch Hunt.flac
Extracted successfully
Conclusion: this track is CDDA with probability 100%
Tempfile successfully deleted.
09 -===- Z:\Downloads\George Russell\George Russell - Jazz Workshop (Bluebird 1956)\09 - The Sad Sergeant.flac
Extracted successfully
Conclusion: this track is CDDA with probability 100%
Tempfile successfully deleted.
10 -===- Z:\Downloads\George Russell\George Russell - Jazz Workshop (Bluebird 1956)\10 - Knights Of The Steamtable.flac
Extracted successfully
Conclusion: this track is CDDA with probability 100%
Tempfile successfully deleted.
11 -===- Z:\Downloads\George Russell\George Russell - Jazz Workshop (Bluebird 1956)\11 - Ballad Of Hix Blewitt.flac
Extracted successfully
Conclusion: this track is CDDA with probability 100%
Tempfile successfully deleted.
12 -===- Z:\Downloads\George Russell\George Russell - Jazz Workshop (Bluebird 1956)\12 - Concerto For Billy The Kid.flac
Extracted successfully
Conclusion: this track is CDDA with probability 100%
Tempfile successfully deleted.
13 -===- Z:\Downloads\George Russell\George Russell - Jazz Workshop (Bluebird 1956)\13 - Ballad Of Hix Blewitt (Alternate Take).flac
Extracted successfully
Conclusion: this track is CDDA with probability 100%
Tempfile successfully deleted.
14 -===- Z:\Downloads\George Russell\George Russell - Jazz Workshop (Bluebird 1956)\14 - Concerto For Billy The Kid (Alternate Take).flac
Extracted successfully
Conclusion: this track is CDDA with probability 100%
Tempfile successfully deleted.
Finished at: Sunday, 08. 03. 2009. - 17:12.04 (operation time: 0:09.05)
Приватный:
Нет (DHT включён)
Размер:
269.18 Мб (282,260,801 байт) » файлов: 31
Участники:
1 раздают, 0 качают (1 участников всего)
Внешние участники:
5 раздают, 1 качают (6 участников всего) [ Обновить ]
Нет сидеров - пишите личное сообщение M0p94ok. Не нравятся торренты? Участники группы Pro-jazz Club могут заказать прямую ссылку на скачивание из облака.
No seeders - write a personal message to M0p94ok. Don't like torrents? Members of Pro-jazz Club group can order a direct download link from the cloud.
15:20
54
Нет комментариев. Ваш будет первым!