Вы используете незарегистрированную версию компонента "Вкладки"!

Поиск

1957 Duke Ellington and His Orchestra - Indigos (2014) {HDTT} [DSD128]

1957 Duke Ellington and His Orchestra - Indigos (2014) {HDTT} [DSD128]
Стили:
Доп. инфо:

Формат записи/Источник записи: [DSD][OF]
Наличие водяных знаков: Нет
Год издания/переиздания диска: 1957/2014
Издатель (лейбл): High Definition Tape Transfers
Продолжительность: 00:35:56
Наличие сканов в содержимом раздачи: Буклет PDF

Контейнер: DSF (*.dsf)
Тип рипа: tracks
Разрядность: 128(5,6 MHz/1 Bit)
Формат: DSD
Количество каналов: 2.0

Источник (релизер): https://www.highdeftapetransfers.com/products/duke-ellington-indigos

Лог проверки качества
foobar2000 1.4.8 / Замер динамического диапазона (DR) 1.1.1
Дата отчёта:  2019-12-07 16:21:44

--------------------------------------------------------------------------------
Анализ:   Duke Ellington and His Orchestra / Indigos
--------------------------------------------------------------------------------

DR         Пики         RMS           Продолжительность трека
--------------------------------------------------------------------------------
DR10      -8.15 дБ   -22.55 дБ      4:47 01-Prelude to A Kiss
DR10      -7.79 дБ   -22.27 дБ      4:20 02-Willow Weep for Me
DR12      -7.15 дБ   -24.52 дБ      5:24 03-Tenderly
DR10      -7.41 дБ   -21.20 дБ      4:10 04-Dancing in the Dark
DR13      -9.33 дБ   -27.78 дБ      4:50 05-Solitude
DR12     -10.46 дБ   -24.24 дБ      4:06 06-Where or When
DR10     -10.69 дБ   -26.33 дБ      3:09 07-Mood Indigo
DR10     -12.93 дБ   -27.80 дБ      5:10 08-Autumn Leaves
--------------------------------------------------------------------------------

Количество треков: 8
Реальные значения DR: DR11

Частота:   5644800 Гц / Частота PCM: 176400 Гц
Каналов:   2
Разрядность:   1
Битрейт:   11290 кбит/с
Кодек:   DSD128
================================================================================
Any questions - support@pro-jazz.com. Есть вопросы - support@pro-jazz.com
12:10
240
Нет комментариев. Ваш будет первым!