Вы используете незарегистрированную версию компонента "Вкладки"!

Поиск

1957 Count Basie Orchestra - April In Paris (2019) {Verve} [24-192]

1957 Count Basie Orchestra - April In Paris (2019) {Verve} [24-192]
Стили:
Издатель (лейбл):
Битрейт аудио:
lossless
Доп. инфо:

Формат записи/Источник записи: [TR24][OF]
Издание: Remastered
Год издания/переиздания диска: 1957/2019
Продолжительность: 00:39:34
Наличие сканов в содержимом раздачи: Нет

Контейнер: FLAC (*.flac)
Тип рипа: tracks
Разрядность: 24/192
Количество каналов: 2.0

Источник (релизер): Qobuz

Лог проверки качества
foobar2000 1.3.7 / Dynamic Range Meter 1.1.1
log date: 2019-10-19 06:07:03

--------------------------------------------------------------------------------
Analyzed: The Count Basie Orchestra / April In Paris
--------------------------------------------------------------------------------

DR         Peak         RMS     Duration Track
--------------------------------------------------------------------------------
DR10      -6.84 dB   -18.09 dB      3:51 01-April In Paris
DR10      -5.93 dB   -19.21 dB      5:18 02-Corner Pocket
DR11      -6.02 dB   -18.71 dB      4:48 03-Didn't You
DR11      -5.93 dB   -20.88 dB      4:02 04-Sweety Cakes
DR12      -7.72 dB   -22.36 dB      3:10 05-Magic
DR14      -6.91 dB   -23.87 dB      5:18 06-Shiny Stockings
DR12      -7.71 dB   -22.86 dB      3:24 07-What Am I Here For?
DR13      -9.33 dB   -25.71 dB      3:15 08-Midgets
DR12      -5.74 dB   -20.39 dB      3:24 09-Mambo Inn
DR12      -5.46 dB   -19.44 dB      3:08 10-Dinner With Friends
--------------------------------------------------------------------------------

Number of tracks:  10
Official DR value: DR12

Samplerate:        192000 Hz
Channels:          2
Bits per sample:   24
Bitrate:           3563 kbps
Codec:             FLAC
================================================================================
Any questions - support@pro-jazz.com. Есть вопросы - support@pro-jazz.com
18:57
379
Нет комментариев. Ваш будет первым!