Поиск

1957 (1987) Thelonious Monk - Thelonious Himself

1957 (1987) Thelonious Monk - Thelonious Himself
Страна-производитель диска (релиза):
USA
Дата записи диска:
12 и 16 апреля 1957
Дата издания диска:
1957
Дата переиздания диска:
1987
Издатель (лейбл):
Номер по каталогу:
OJCCD-254-2
Носитель:
CD
Битрейт аудио:
lossless
Аудиокодек:
FLAC (*.flac)
Тип рипа:
tracks+.cue
Время звучания:
66:32
Наличие сканов:
  • да
Релизёр (источник):
mironov_ad
Треклист:

01. April in Paris (Duke, Harburg) 3:52
02. (I Don't Stand) A Ghost of a Chance (With You) (Crosby, Washington, Young) 4:22
03. Functional Monk 9:16
04. I'm Getting Sentimental over You (Bassman, Washington) 4:04
05. I Should Care (Cahn, Stordahl, Weston) 3:13
06. 'Round Midnight (In Progress) (Hanighen, Monk, Williams) 21:38
07. 'Round Midnight (Hanighen, Monk, Williams) 6:41
08. All Alone (Berlin) 4:50
09. Monk's Mood (Monk) 7:48

Состав:
  • John Coltrane Sax (Tenor)
  • Jack Higgins Engineer, Recorder
  • Orrin Keepnews Annotation, Audio Production, Liner Notes, Original Album Producer, Original Liner Notes, Reissue Producer
  • Thelonious Monk Composer, Piano
  • Wilbur Ware Bass
Альбом записан 12 и 16 апреля 1957 года, оцифрован 1987 году на Fantasy Studious. Альбом почти целиком сольный (естественно, ф-но), только последний трек исполняется, кроме Монка, John Coltrane (tenor sax) и Wilbur Ware (bass). 6 трек бонусный.
<spoiler title="Лог создания рипа">EAC extraction logfile from 14. June 2007, 12:27 for CD
Thelonious Monk / Thelonious Himself
Used drive : HL-DT-STDVDRAM GSA-4163B Adapter: 1 ID: 1
Read mode : Secure with NO C2, accurate stream, disable cache
Read offset correction : 667
Overread into Lead-In and Lead-Out : No
Used output format : Internal WAV Routines
44.100 Hz; 16 Bit; Stereo
Other options :
Fill up missing offset samples with silence : Yes
Delete leading and trailing silent blocks : No
Installed external ASPI interface
Track 1
Filename D:\Thelonious Monk - Thelonious Himself (1957)[FLAC]{OJC}\01 - April in Paris.wav
Pre-gap length 0:00:02.00
Peak level 84.2 %
Track quality 100.0 %
Test CRC EB50A7CE
Copy CRC EB50A7CE
Copy OK
Track 2
Filename D:\Thelonious Monk - Thelonious Himself (1957)[FLAC]{OJC}\02 - (I Don't Stand) A Ghost of a Chance with You.wav
Pre-gap length 0:00:03.53
Peak level 84.5 %
Track quality 100.0 %
Test CRC A94CFF80
Copy CRC A94CFF80
Copy OK
Track 3
Filename D:\Thelonious Monk - Thelonious Himself (1957)[FLAC]{OJC}\03 - Functional.wav
Pre-gap length 0:00:03.66
Peak level 78.0 %
Track quality 100.0 %
Test CRC 060F5CB5
Copy CRC 060F5CB5
Copy OK
Track 4
Filename D:\Thelonious Monk - Thelonious Himself (1957)[FLAC]{OJC}\04 - I'm Getting Sentimental Over You.wav
Pre-gap length 0:00:04.31
Peak level 77.3 %
Track quality 99.9 %
Test CRC 45ADD10A
Copy CRC 45ADD10A
Copy OK
Track 5
Filename D:\Thelonious Monk - Thelonious Himself (1957)[FLAC]{OJC}\05 - I Should Care.wav
Pre-gap length 0:00:04.14
Peak level 84.3 %
Track quality 99.9 %
Test CRC 8F369953
Copy CRC 8F369953
Copy OK
Track 6
Filename D:\Thelonious Monk - Thelonious Himself (1957)[FLAC]{OJC}\06 - 'Round Midnight (in progress).wav
Pre-gap length 0:00:02.28
Peak level 82.8 %
Track quality 99.9 %
Test CRC DAF90CA1
Copy CRC DAF90CA1
Copy OK
Track 7
Filename D:\Thelonious Monk - Thelonious Himself (1957)[FLAC]{OJC}\07 - 'Round Midnight.wav
Pre-gap length 0:00:04.13
Peak level 79.5 %
Track quality 100.0 %
Test CRC 38B983C0
Copy CRC 38B983C0
Copy OK
Track 8
Filename D:\Thelonious Monk - Thelonious Himself (1957)[FLAC]{OJC}\08 - All Alone.wav
Pre-gap length 0:00:03.71
Peak level 75.6 %
Track quality 100.0 %
Test CRC EA3AE4D3
Copy CRC EA3AE4D3
Copy OK
Track 9
Filename D:\Thelonious Monk - Thelonious Himself (1957)[FLAC]{OJC}\09 - Monk's Mood.wav
Pre-gap length 0:00:03.56
Peak level 87.4 %
Track quality 100.0 %
Test CRC 48A1BBA9
Copy CRC 48A1BBA9
Copy OK
No errors occured
End of status report</spoiler>
<spoiler title="Содержание индексной карты (.CUE)">REM GENRE Jazz
REM DATE 1957
REM DISCID 550F9809
REM COMMENT "ExactAudioCopy v0.95b2"
PERFORMER "Thelonious Monk"
TITLE "Thelonious Himself"
FILE "01 - April in Paris.wav" WAVE TRACK 01 AUDIO TITLE "April in Paris" PERFORMER "Thelonious Monk" INDEX 01 00:00:00 TRACK 02 AUDIO TITLE "(I Don't Stand) A Ghost of a Chance with You" PERFORMER "Thelonious Monk" INDEX 00 03:50:39
FILE "02 - (I Don't Stand) A Ghost of a Chance with You.wav" WAVE INDEX 01 00:00:00 TRACK 03 AUDIO TITLE "Functional" PERFORMER "Thelonious Monk" INDEX 00 04:20:47
FILE "03 - Functional.wav" WAVE INDEX 01 00:00:00 TRACK 04 AUDIO TITLE "I'm Getting Sentimental Over You" PERFORMER "Thelonious Monk" INDEX 00 09:18:16
FILE "04 - I'm Getting Sentimental Over You.wav" WAVE INDEX 01 00:00:00 TRACK 05 AUDIO TITLE "I Should Care" PERFORMER "Thelonious Monk" INDEX 00 04:03:14
FILE "05 - I Should Care.wav" WAVE INDEX 01 00:00:00 TRACK 06 AUDIO TITLE "'Round Midnight (in progress)" PERFORMER "Thelonious Monk" INDEX 00 03:13:17
FILE "06 - 'Round Midnight (in progress).wav" WAVE INDEX 01 00:00:00 TRACK 07 AUDIO TITLE "'Round Midnight" PERFORMER "Thelonious Monk" INDEX 00 21:55:59
FILE "07 - 'Round Midnight.wav" WAVE INDEX 01 00:00:00 TRACK 08 AUDIO TITLE "All Alone" PERFORMER "Thelonious Monk" INDEX 00 06:40:49
FILE "08 - All Alone.wav" WAVE INDEX 01 00:00:00 TRACK 09 AUDIO TITLE "Monk's Mood" PERFORMER "Thelonious Monk" INDEX 00 04:49:62
FILE "09 - Monk's Mood.wav" WAVE INDEX 01 00:00:00</spoiler>
Приватный:
Нет (DHT включён)
Размер:
185.56 Мб (194,570,089 байт) » файлов: 16
Участники:
0 раздают, 0 качают (0 участников всего)
Внешние участники:
2 раздают, 1 качают (3 участников всего) [ Обновить ]
Скорость:
Торрент не зарегистрирован на трекере
19:05
51
RSS
Нет комментариев. Ваш будет первым!