Вы используете незарегистрированную версию компонента "Вкладки"!

Поиск

1957, 1961 Eddie Higgins - Anticipation (2020) {Nagel Heyer} [24-44,1]

1957, 1961 Eddie Higgins - Anticipation (2020) {Nagel Heyer} [24-44,1]
Стили:
Издатель (лейбл):
Битрейт аудио:
lossless
Доп. инфо:

Формат записи/Источник записи: [TR24][OF]
Издание: Remastered
Год издания/переиздания диска: 2020

Издатель (лейбл): nagel heyer records
Продолжительность: 01:25:08
Наличие сканов в содержимом раздачи: Нет

Контейнер: FLAC (*.flac)
Тип рипа: tracks
Разрядность: 24/44,1
Количество каналов: 2.0

Источник (релизер): Qobuz

Лог проверки качества
foobar2000 1.3.16 / Dynamic Range Meter 1.1.1
log date: 2020-08-25 18:40:50

--------------------------------------------------------------------------------
Analyzed: Eddie Higgins / Anticipation
--------------------------------------------------------------------------------

DR         Peak         RMS     Duration Track
--------------------------------------------------------------------------------
DR12      -1.00 dB   -15.25 dB      4:36 01-Falling in Love with Love
DR9       -1.00 dB   -14.40 dB      5:28 02-Somewhere over the Rainbow
DR8       -1.00 dB   -12.47 dB      5:17 03-Zarac
DR8       -1.00 dB   -11.31 dB      5:03 04-Happiness Is a Thing Called Joe
DR9       -1.00 dB   -14.69 dB      4:30 05-I'll Be Loving You
DR7       -1.00 dB   -10.04 dB      4:32 06-Night in Tunisia
DR9       -1.00 dB   -12.30 dB      7:01 07-You Leave Me Breathless
DR12      -1.00 dB   -15.85 dB      4:24 08-Satin Doll
DR7       -1.00 dB   -10.53 dB      3:45 09-Strike up the Band
DR11      -1.00 dB   -15.71 dB      6:30 10-Prelude to a Kiss
DR7       -1.00 dB   -10.00 dB      4:08 11-Getting Sentimental over You
DR9       -1.00 dB   -11.89 dB      7:14 12-Foot's Bag
DR7       -1.00 dB    -9.62 dB      4:41 13-Tangerine
DR8       -1.00 dB   -13.01 dB      5:58 14-Spring Is Here
DR8       -1.00 dB   -11.07 dB      4:54 15-Between the Devil and the Deep Blue Sea
DR12      -1.00 dB   -14.73 dB      4:08 16-Blues for Big Scotia
DR8       -1.00 dB   -11.12 dB      3:07 17-You'd Be so Nice to Come Home To
--------------------------------------------------------------------------------

Number of tracks:  17
Official DR value: DR9

Samplerate:        44100 Hz
Channels:          2
Bits per sample:   24
Bitrate:           1415 kbps
Codec:             FLAC
================================================================================
Any questions - support@pro-jazz.com. Есть вопросы - support@pro-jazz.com
20:17
245
Нет комментариев. Ваш будет первым!