Поиск

1957-1960 Benny Carter - Four Classic Albums Plus (2012) {Avid Jazz} [2CD]

1957-1960 Benny Carter - Four Classic Albums Plus (2012) {Avid Jazz} [2CD]
Стили:
Номер по каталогу:
AMSC1048
Носитель:
CD
Тип рипа:
tracks+.cue
Аудиокодек:
FLAC (*.flac)
Битрейт аудио:
lossless
Время звучания:
02:39:52
Наличие сканов:
да
Страна-производитель диска (релиза):
UK
Релизёр (источник):
ssagwebster
Лог создания рипа
Exact Audio Copy V1.3 from 2. September 2016

EAC extraction logfile from 9. November 2019, 13:21

Benny Carter / Four Classic Albums Plus  - CD1

Used drive  : TSSTcorpCDDVDW SH-224FB   Adapter: 1  ID: 0

Read mode               : Secure
Utilize accurate stream : Yes
Defeat audio cache      : Yes
Make use of C2 pointers : No

Read offset correction                      : 6
Overread into Lead-In and Lead-Out          : No
Fill up missing offset samples with silence : Yes
Delete leading and trailing silent blocks   : No
Null samples used in CRC calculations       : Yes
Used interface                              : Native Win32 interface for Win NT & 2000
Gap handling                                : Appended to previous track

Used output format              : User Defined Encoder
Selected bitrate                : 128 kBit/s
Quality                         : High
Add ID3 tag                     : No
Command line compressor         : C:\Program Files (x86)\Exact Audio Copy\Flac\flac.exe
Additional command line options : -V -8 -T "Genre=%genre%" -T "Artist=%artist%" -T "Title=%title%" -T "Album=%albumtitle%" -T "Date=%year%" -T "Tracknumber=%tracknr%" -T "Comment=%comment%" %source%

TOC of the extracted CD

     Track |   Start  |  Length  | Start sector | End sector
    ---------------------------------------------------------
        1  |  0:00.00 |  7:51.64 |         0    |    35388
        2  |  7:51.64 |  5:48.66 |     35389    |    61554
        3  | 13:40.55 |  6:00.07 |     61555    |    88561
        4  | 19:40.62 |  4:58.56 |     88562    |   110967
        5  | 24:39.43 |  3:40.30 |    110968    |   127497
        6  | 28:19.73 |  6:14.59 |    127498    |   155606
        7  | 34:34.57 |  4:42.24 |    155607    |   176780
        8  | 39:17.06 |  2:52.35 |    176781    |   189715
        9  | 42:09.41 |  3:21.09 |    189716    |   204799
       10  | 45:30.50 |  2:34.50 |    204800    |   216399
       11  | 48:05.25 |  2:43.21 |    216400    |   228645
       12  | 50:48.46 |  5:03.19 |    228646    |   251389
       13  | 55:51.65 |  2:25.74 |    251390    |   262338
       14  | 58:17.64 |  3:23.41 |    262339    |   277604
       15  | 61:41.30 |  3:15.30 |    277605    |   292259
       16  | 64:56.60 |  3:09.19 |    292260    |   306453
       17  | 68:06.04 |  2:47.10 |    306454    |   318988
       18  | 70:53.14 |  2:40.13 |    318989    |   331001
       19  | 73:33.27 |  3:11.62 |    331002    |   345388
       20  | 76:45.14 |  3:11.18 |    345389    |   359731

Track  1

     Filename D:\ssagwebster\Benny Carter - Four Classic Albums Plus (2CD, 2012)\CD1\01. Old Fashioned Love.wav

     Pre-gap length  0:00:02.00

     Peak level 95.5 %
     Extraction speed 2.2 X
     Track quality 100.0 %
     Test CRC 1E95F404
     Copy CRC 1E95F404
     Accurately ripped (confidence 5)  [0997144A]  (AR v2)
     Copy OK

Track  2

     Filename D:\ssagwebster\Benny Carter - Four Classic Albums Plus (2CD, 2012)\CD1\02. I’m Coming Virginia.wav

     Pre-gap length  0:00:03.25

     Peak level 95.5 %
     Extraction speed 2.4 X
     Track quality 100.0 %
     Test CRC CC24C587
     Copy CRC CC24C587
     Accurately ripped (confidence 4)  [B71DBCD4]  (AR v2)
     Copy OK

Track  3

     Filename D:\ssagwebster\Benny Carter - Four Classic Albums Plus (2CD, 2012)\CD1\03. A Walkin’ Thing.wav

     Pre-gap length  0:00:03.25

     Peak level 79.4 %
     Extraction speed 2.7 X
     Track quality 100.0 %
     Test CRC 67A52192
     Copy CRC 67A52192
     Accurately ripped (confidence 4)  [3B8658E3]  (AR v2)
     Copy OK

Track  4

     Filename D:\ssagwebster\Benny Carter - Four Classic Albums Plus (2CD, 2012)\CD1\04. Blue Lou.wav

     Pre-gap length  0:00:03.25

     Peak level 95.4 %
     Extraction speed 2.8 X
     Track quality 100.0 %
     Test CRC 4CF31A6D
     Copy CRC 4CF31A6D
     Accurately ripped (confidence 4)  [6DD5C621]  (AR v2)
     Copy OK

Track  5

     Filename D:\ssagwebster\Benny Carter - Four Classic Albums Plus (2CD, 2012)\CD1\05. Ain’t She Sweet.wav

     Pre-gap length  0:00:03.26

     Peak level 95.4 %
     Extraction speed 2.5 X
     Track quality 99.9 %
     Test CRC 1E190F03
     Copy CRC 1E190F03
     Accurately ripped (confidence 4)  [3429DCD7]  (AR v2)
     Copy OK

Track  6

     Filename D:\ssagwebster\Benny Carter - Four Classic Albums Plus (2CD, 2012)\CD1\06. How Can You Lose.wav

     Pre-gap length  0:00:03.25

     Peak level 95.5 %
     Extraction speed 2.9 X
     Track quality 99.9 %
     Test CRC 843298F9
     Copy CRC 843298F9
     Accurately ripped (confidence 4)  [3A179D62]  (AR v2)
     Copy OK

Track  7

     Filename D:\ssagwebster\Benny Carter - Four Classic Albums Plus (2CD, 2012)\CD1\07. Blues My Naughtie Sweetie Gives To Me.wav

     Pre-gap length  0:00:03.25

     Peak level 95.5 %
     Extraction speed 3.2 X
     Track quality 100.0 %
     Test CRC 3A4502C5
     Copy CRC 3A4502C5
     Accurately ripped (confidence 4)  [E282AB1E]  (AR v2)
     Copy OK

Track  8

     Filename D:\ssagwebster\Benny Carter - Four Classic Albums Plus (2CD, 2012)\CD1\08. Thou Swell.wav

     Pre-gap length  0:00:03.26

     Peak level 75.5 %
     Extraction speed 3.1 X
     Track quality 100.0 %
     Test CRC 46C5D991
     Copy CRC 46C5D991
     Accurately ripped (confidence 3)  [95729C75]  (AR v2)
     Copy OK

Track  9

     Filename D:\ssagwebster\Benny Carter - Four Classic Albums Plus (2CD, 2012)\CD1\09. My Blue Heave.wav

     Pre-gap length  0:00:03.26

     Peak level 70.7 %
     Extraction speed 3.2 X
     Track quality 100.0 %
     Test CRC EEC84F63
     Copy CRC EEC84F63
     Accurately ripped (confidence 3)  [4EFA92AC]  (AR v2)
     Copy OK

Track 10

     Filename D:\ssagwebster\Benny Carter - Four Classic Albums Plus (2CD, 2012)\CD1\10. Just Imagine.wav

     Pre-gap length  0:00:03.26

     Peak level 72.3 %
     Extraction speed 2.6 X
     Track quality 99.9 %
     Test CRC CB9825DB
     Copy CRC CB9825DB
     Accurately ripped (confidence 3)  [EA9A9646]  (AR v2)
     Copy OK

Track 11

     Filename D:\ssagwebster\Benny Carter - Four Classic Albums Plus (2CD, 2012)\CD1\11. If I Could Be With You.wav

     Pre-gap length  0:00:03.26

     Peak level 65.2 %
     Extraction speed 3.3 X
     Track quality 100.0 %
     Test CRC 800D7C22
     Copy CRC 800D7C22
     Accurately ripped (confidence 3)  [37A5E028]  (AR v2)
     Copy OK

Track 12

     Filename D:\ssagwebster\Benny Carter - Four Classic Albums Plus (2CD, 2012)\CD1\12. Sweet Lorraine.wav

     Pre-gap length  0:00:03.26

     Peak level 76.0 %
     Extraction speed 3.7 X
     Track quality 100.0 %
     Test CRC 1C2CCF9D
     Copy CRC 1C2CCF9D
     Accurately ripped (confidence 3)  [0BF60B33]  (AR v2)
     Copy OK

Track 13

     Filename D:\ssagwebster\Benny Carter - Four Classic Albums Plus (2CD, 2012)\CD1\13. Who’s Sorry Now.wav

     Pre-gap length  0:00:03.25

     Peak level 70.0 %
     Extraction speed 3.4 X
     Track quality 100.0 %
     Test CRC 89DF3357
     Copy CRC 89DF3357
     Accurately ripped (confidence 3)  [41C8F9ED]  (AR v2)
     Copy OK

Track 14

     Filename D:\ssagwebster\Benny Carter - Four Classic Albums Plus (2CD, 2012)\CD1\14. Laugh! Clown! Laugh!.wav

     Pre-gap length  0:00:03.25

     Peak level 73.4 %
     Extraction speed 3.6 X
     Track quality 100.0 %
     Test CRC A07F2449
     Copy CRC A07F2449
     Accurately ripped (confidence 3)  [4B85E9CA]  (AR v2)
     Copy OK

Track 15

     Filename D:\ssagwebster\Benny Carter - Four Classic Albums Plus (2CD, 2012)\CD1\15. All Alone.wav

     Pre-gap length  0:00:03.26

     Peak level 70.5 %
     Extraction speed 3.7 X
     Track quality 100.0 %
     Test CRC B61F63DE
     Copy CRC B61F63DE
     Accurately ripped (confidence 3)  [D3A18C63]  (AR v2)
     Copy OK

Track 16

     Filename D:\ssagwebster\Benny Carter - Four Classic Albums Plus (2CD, 2012)\CD1\16. Mary Lou.wav

     Pre-gap length  0:00:03.26

     Peak level 69.0 %
     Extraction speed 3.2 X
     Track quality 99.9 %
     Test CRC CCB7F6C6
     Copy CRC CCB7F6C6
     Accurately ripped (confidence 3)  [ED3E26F1]  (AR v2)
     Copy OK

Track 17

     Filename D:\ssagwebster\Benny Carter - Four Classic Albums Plus (2CD, 2012)\CD1\17. In A Little Spanish Tow.wav

     Pre-gap length  0:00:03.26

     Peak level 72.3 %
     Extraction speed 3.7 X
     Track quality 100.0 %
     Test CRC 140E035A
     Copy CRC 140E035A
     Accurately ripped (confidence 3)  [932E63D1]  (AR v2)
     Copy OK

Track 18

     Filename D:\ssagwebster\Benny Carter - Four Classic Albums Plus (2CD, 2012)\CD1\18. Someone To Watch Over Me.wav

     Pre-gap length  0:00:03.25

     Peak level 59.7 %
     Extraction speed 3.7 X
     Track quality 100.0 %
     Test CRC 37F5526B
     Copy CRC 37F5526B
     Accurately ripped (confidence 3)  [7AA23704]  (AR v2)
     Copy OK

Track 19

     Filename D:\ssagwebster\Benny Carter - Four Classic Albums Plus (2CD, 2012)\CD1\19. A Monday Date.wav

     Pre-gap length  0:00:03.26

     Peak level 73.8 %
     Extraction speed 3.9 X
     Track quality 100.0 %
     Test CRC 414FEC5F
     Copy CRC 414FEC5F
     Accurately ripped (confidence 3)  [7BB83A61]  (AR v2)
     Copy OK

Track 20

     Filename D:\ssagwebster\Benny Carter - Four Classic Albums Plus (2CD, 2012)\CD1\20. All Alone (alternative take).wav

     Pre-gap length  0:00:03.26

     Peak level 52.4 %
     Extraction speed 3.2 X
     Track quality 99.9 %
     Test CRC 1242C81D
     Copy CRC 1242C81D
     Accurately ripped (confidence 3)  [02E05A31]  (AR v2)
     Copy OK

All tracks accurately ripped

No errors occurred

End of status report

==== Log checksum 7FE1CB2D779DFE73E74DA40A3837CE4C56B7BB40C692EB80D4121F776C32EE8A ====
Exact Audio Copy V1.3 from 2. September 2016

EAC extraction logfile from 9. November 2019, 14:37

Benny Carter / Four Classic Albums Plus - CD2

Used drive  : TSSTcorpCDDVDW SH-224FB   Adapter: 1  ID: 0

Read mode               : Secure
Utilize accurate stream : Yes
Defeat audio cache      : Yes
Make use of C2 pointers : No

Read offset correction                      : 6
Overread into Lead-In and Lead-Out          : No
Fill up missing offset samples with silence : Yes
Delete leading and trailing silent blocks   : No
Null samples used in CRC calculations       : Yes
Used interface                              : Native Win32 interface for Win NT & 2000
Gap handling                                : Appended to previous track

Used output format              : User Defined Encoder
Selected bitrate                : 128 kBit/s
Quality                         : High
Add ID3 tag                     : No
Command line compressor         : C:\Program Files (x86)\Exact Audio Copy\Flac\flac.exe
Additional command line options : -V -8 -T "Genre=%genre%" -T "Artist=%artist%" -T "Title=%title%" -T "Album=%albumtitle%" -T "Date=%year%" -T "Tracknumber=%tracknr%" -T "Comment=%comment%" %source%

TOC of the extracted CD

     Track |   Start  |  Length  | Start sector | End sector
    ---------------------------------------------------------
        1  |  0:00.00 |  3:00.05 |         0    |    13504
        2  |  3:00.05 |  3:36.29 |     13505    |    29733
        3  |  6:36.34 |  3:07.10 |     29734    |    43768
        4  |  9:43.44 |  3:19.15 |     43769    |    58708
        5  | 13:02.59 |  2:25.02 |     58709    |    69585
        6  | 15:27.61 |  3:46.69 |     69586    |    86604
        7  | 19:14.55 |  3:25.65 |     86605    |   102044
        8  | 22:40.45 |  4:01.01 |    102045    |   120120
        9  | 26:41.46 |  3:03.14 |    120121    |   133859
       10  | 29:44.60 |  2:51.12 |    133860    |   146696
       11  | 32:35.72 |  3:08.38 |    146697    |   160834
       12  | 35:44.35 |  2:43.41 |    160835    |   173100
       13  | 38:28.01 |  3:15.40 |    173101    |   187765
       14  | 41:43.41 |  1:58.47 |    187766    |   196662
       15  | 43:42.13 |  3:19.64 |    196663    |   211651
       16  | 47:02.02 |  3:24.60 |    211652    |   227011
       17  | 50:26.62 |  2:52.12 |    227012    |   239923
       18  | 53:18.74 |  3:02.33 |    239924    |   253606
       19  | 56:21.32 |  2:53.46 |    253607    |   266627
       20  | 59:15.03 |  3:42.50 |    266628    |   283327
       21  | 62:57.53 |  2:42.64 |    283328    |   295541
       22  | 65:40.42 |  2:56.02 |    295542    |   308743
       23  | 68:36.44 |  3:05.27 |    308744    |   322645
       24  | 71:41.71 |  2:39.70 |    322646    |   334640
       25  | 74:21.66 |  1:58.41 |    334641    |   343531
       26  | 76:20.32 |  3:35.18 |    343532    |   359674

Track  1

     Filename D:\ssagwebster\Benny Carter - Four Classic Albums Plus (2CD, 2012)\CD2\01. And The Angels Sing.wav

     Pre-gap length  0:00:02.00

     Peak level 69.5 %
     Extraction speed 1.8 X
     Track quality 100.0 %
     Test CRC 920A8E47
     Copy CRC 920A8E47
     Accurately ripped (confidence 4)  [026317A6]  (AR v2)
     Copy OK

Track  2

     Filename D:\ssagwebster\Benny Carter - Four Classic Albums Plus (2CD, 2012)\CD2\02. Everything I Have Is Your.wav

     Pre-gap length  0:00:03.26

     Peak level 58.2 %
     Extraction speed 2.0 X
     Track quality 100.0 %
     Test CRC A011E443
     Copy CRC A011E443
     Accurately ripped (confidence 4)  [FD4123A0]  (AR v2)
     Copy OK

Track  3

     Filename D:\ssagwebster\Benny Carter - Four Classic Albums Plus (2CD, 2012)\CD2\03. I Understand.wav

     Pre-gap length  0:00:03.25

     Peak level 66.5 %
     Extraction speed 2.1 X
     Track quality 100.0 %
     Test CRC 946BD420
     Copy CRC 946BD420
     Accurately ripped (confidence 4)  [1A007C1A]  (AR v2)
     Copy OK

Track  4

     Filename D:\ssagwebster\Benny Carter - Four Classic Albums Plus (2CD, 2012)\CD2\04. All Or Nothing At All.wav

     Pre-gap length  0:00:03.26

     Peak level 77.4 %
     Extraction speed 2.0 X
     Track quality 99.9 %
     Test CRC 57FEEDB4
     Copy CRC 57FEEDB4
     Accurately ripped (confidence 4)  [6D7E4D40]  (AR v2)
     Copy OK

Track  5

     Filename D:\ssagwebster\Benny Carter - Four Classic Albums Plus (2CD, 2012)\CD2\05. I’ll Never Smile Agai.wav

     Pre-gap length  0:00:03.25

     Peak level 53.3 %
     Extraction speed 2.2 X
     Track quality 100.0 %
     Test CRC 7FE27584
     Copy CRC 7FE27584
     Accurately ripped (confidence 4)  [D3081491]  (AR v2)
     Copy OK

Track  6

     Filename D:\ssagwebster\Benny Carter - Four Classic Albums Plus (2CD, 2012)\CD2\06. If I Loved You.wav

     Pre-gap length  0:00:03.26

     Peak level 67.9 %
     Extraction speed 2.5 X
     Track quality 100.0 %
     Test CRC 2EE9CB44
     Copy CRC 2EE9CB44
     Accurately ripped (confidence 4)  [69F2673A]  (AR v2)
     Copy OK

Track  7

     Filename D:\ssagwebster\Benny Carter - Four Classic Albums Plus (2CD, 2012)\CD2\07. Far Away Place.wav

     Pre-gap length  0:00:03.26

     Peak level 83.7 %
     Extraction speed 2.6 X
     Track quality 100.0 %
     Test CRC D0A1159E
     Copy CRC D0A1159E
     Accurately ripped (confidence 4)  [94464AD4]  (AR v2)
     Copy OK

Track  8

     Filename D:\ssagwebster\Benny Carter - Four Classic Albums Plus (2CD, 2012)\CD2\08. I Should Care.wav

     Pre-gap length  0:00:03.25

     Peak level 68.4 %
     Extraction speed 2.4 X
     Track quality 99.9 %
     Test CRC 0917425F
     Copy CRC 0917425F
     Accurately ripped (confidence 4)  [5F906BDB]  (AR v2)
     Copy OK

Track  9

     Filename D:\ssagwebster\Benny Carter - Four Classic Albums Plus (2CD, 2012)\CD2\09. For All We Know.wav

     Pre-gap length  0:00:03.26

     Peak level 95.4 %
     Extraction speed 2.8 X
     Track quality 100.0 %
     Test CRC EDDF61CD
     Copy CRC EDDF61CD
     Accurately ripped (confidence 4)  [5C74B51B]  (AR v2)
     Copy OK

Track 10

     Filename D:\ssagwebster\Benny Carter - Four Classic Albums Plus (2CD, 2012)\CD2\10. I Don’t Stand A Ghost Of A Chance.wav

     Pre-gap length  0:00:03.25

     Peak level 68.9 %
     Extraction speed 2.8 X
     Track quality 100.0 %
     Test CRC AF6D5AC6
     Copy CRC AF6D5AC6
     Accurately ripped (confidence 4)  [25AC9F6E]  (AR v2)
     Copy OK

Track 11

     Filename D:\ssagwebster\Benny Carter - Four Classic Albums Plus (2CD, 2012)\CD2\11. The One I Love.wav

     Pre-gap length  0:00:03.25

     Peak level 88.8 %
     Extraction speed 2.9 X
     Track quality 100.0 %
     Test CRC 17BF73A8
     Copy CRC 17BF73A8
     Accurately ripped (confidence 4)  [CED46E56]  (AR v2)
     Copy OK

Track 12

     Filename D:\ssagwebster\Benny Carter - Four Classic Albums Plus (2CD, 2012)\CD2\12. Moon Of Manakoora.wav

     Pre-gap length  0:00:03.25

     Peak level 72.2 %
     Extraction speed 3.0 X
     Track quality 100.0 %
     Test CRC C093A823
     Copy CRC C093A823
     Accurately ripped (confidence 4)  [AAF1AC3F]  (AR v2)
     Copy OK

Track 13

     Filename D:\ssagwebster\Benny Carter - Four Classic Albums Plus (2CD, 2012)\CD2\13. June In January.wav

     Pre-gap length  0:00:03.25

     Peak level 77.3 %
     Extraction speed 2.7 X
     Track quality 99.9 %
     Test CRC C8F5B78B
     Copy CRC C8F5B78B
     Accurately ripped (confidence 4)  [2B019C90]  (AR v2)
     Copy OK

Track 14

     Filename D:\ssagwebster\Benny Carter - Four Classic Albums Plus (2CD, 2012)\CD2\14. February Fiesta.wav

     Pre-gap length  0:00:03.26

     Peak level 79.3 %
     Extraction speed 2.9 X
     Track quality 100.0 %
     Test CRC 79A99AC2
     Copy CRC 79A99AC2
     Accurately ripped (confidence 4)  [67E03D59]  (AR v2)
     Copy OK

Track 15

     Filename D:\ssagwebster\Benny Carter - Four Classic Albums Plus (2CD, 2012)\CD2\15. March Wind.wav

     Pre-gap length  0:00:03.25

     Peak level 73.9 %
     Extraction speed 2.8 X
     Track quality 99.9 %
     Test CRC 404D4430
     Copy CRC 404D4430
     Accurately ripped (confidence 4)  [9EB66882]  (AR v2)
     Copy OK

Track 16

     Filename D:\ssagwebster\Benny Carter - Four Classic Albums Plus (2CD, 2012)\CD2\16. I’ll Remember April.wav

     Pre-gap length  0:00:03.25

     Peak level 79.9 %
     Extraction speed 3.4 X
     Track quality 100.0 %
     Test CRC FE3C8B75
     Copy CRC FE3C8B75
     Accurately ripped (confidence 4)  [276C602C]  (AR v2)
     Copy OK

Track 17

     Filename D:\ssagwebster\Benny Carter - Four Classic Albums Plus (2CD, 2012)\CD2\17. One Morning In May.wav

     Pre-gap length  0:00:03.26

     Peak level 71.6 %
     Extraction speed 3.4 X
     Track quality 100.0 %
     Test CRC EEDE37D6
     Copy CRC EEDE37D6
     Accurately ripped (confidence 4)  [D211228E]  (AR v2)
     Copy OK

Track 18

     Filename D:\ssagwebster\Benny Carter - Four Classic Albums Plus (2CD, 2012)\CD2\18. June Is Bustin’ Out All Over.wav

     Pre-gap length  0:00:03.26

     Peak level 77.5 %
     Extraction speed 3.4 X
     Track quality 100.0 %
     Test CRC B3C4FBB6
     Copy CRC B3C4FBB6
     Accurately ripped (confidence 4)  [17F4F504]  (AR v2)
     Copy OK

Track 19

     Filename D:\ssagwebster\Benny Carter - Four Classic Albums Plus (2CD, 2012)\CD2\19. Sleigh Ride In July.wav

     Pre-gap length  0:00:03.26

     Peak level 77.5 %
     Extraction speed 3.0 X
     Track quality 99.9 %
     Test CRC 4AD48221
     Copy CRC 4AD48221
     Accurately ripped (confidence 4)  [8B543F20]  (AR v2)
     Copy OK

Track 20

     Filename D:\ssagwebster\Benny Carter - Four Classic Albums Plus (2CD, 2012)\CD2\20. August Moon.wav

     Pre-gap length  0:00:03.26

     Peak level 75.9 %
     Extraction speed 3.7 X
     Track quality 100.0 %
     Test CRC 96324BD3
     Copy CRC 96324BD3
     Accurately ripped (confidence 4)  [C67F53CB]  (AR v2)
     Copy OK

Track 21

     Filename D:\ssagwebster\Benny Carter - Four Classic Albums Plus (2CD, 2012)\CD2\21. September Song.wav

     Pre-gap length  0:00:03.26

     Peak level 75.1 %
     Extraction speed 3.6 X
     Track quality 100.0 %
     Test CRC C1376F98
     Copy CRC C1376F98
     Accurately ripped (confidence 4)  [73B65832]  (AR v2)
     Copy OK

Track 22

     Filename D:\ssagwebster\Benny Carter - Four Classic Albums Plus (2CD, 2012)\CD2\22. Something For October.wav

     Pre-gap length  0:00:03.25

     Peak level 79.9 %
     Extraction speed 3.7 X
     Track quality 100.0 %
     Test CRC C4DC2078
     Copy CRC C4DC2078
     Accurately ripped (confidence 4)  [7FB7E18E]  (AR v2)
     Copy OK

Track 23

     Filename D:\ssagwebster\Benny Carter - Four Classic Albums Plus (2CD, 2012)\CD2\23. Swingin’ In November.wav

     Pre-gap length  0:00:03.26

     Peak level 81.4 %
     Extraction speed 3.8 X
     Track quality 100.0 %
     Test CRC 6EC7353A
     Copy CRC 6EC7353A
     Accurately ripped (confidence 4)  [7754E79B]  (AR v2)
     Copy OK

Track 24

     Filename D:\ssagwebster\Benny Carter - Four Classic Albums Plus (2CD, 2012)\CD2\24. Roses In December.wav

     Pre-gap length  0:00:03.25

     Peak level 75.3 %
     Extraction speed 3.7 X
     Track quality 100.0 %
     Test CRC 0B719DA4
     Copy CRC 0B719DA4
     Accurately ripped (confidence 4)  [2DA25B0A]  (AR v2)
     Copy OK

Track 25

     Filename D:\ssagwebster\Benny Carter - Four Classic Albums Plus (2CD, 2012)\CD2\25. February Fiesta (alternative take).wav

     Pre-gap length  0:00:03.25

     Peak level 87.2 %
     Extraction speed 2.8 X
     Track quality 99.9 %
     Test CRC 56C9ED01
     Copy CRC 56C9ED01
     Accurately ripped (confidence 4)  [40DF225C]  (AR v2)
     Copy OK

Track 26

     Filename D:\ssagwebster\Benny Carter - Four Classic Albums Plus (2CD, 2012)\CD2\26. August Moon (alternative take).wav

     Pre-gap length  0:00:03.25

     Peak level 77.2 %
     Extraction speed 4.0 X
     Track quality 100.0 %
     Test CRC 50D72148
     Copy CRC 50D72148
     Accurately ripped (confidence 4)  [24B6AEF0]  (AR v2)
     Copy OK

All tracks accurately ripped

No errors occurred

End of status report

==== Log checksum CEF8F1E9C1A499CB5CC877F2E91A5FAFD8E16B0F242D098CB2F3EFA9920DB576 ====
No seeders - write personal message to M0p94ok. Any questions - support@pro-jazz.com.
Нет сидеров - пишите в личку M0p94ok. Есть вопросы - support@pro-jazz.com
08:33
23
Нет комментариев. Ваш будет первым!