Вы используете незарегистрированную версию компонента "Вкладки"!

Поиск

1956 VA - Conception (2016) {Prestige, Concord, Universal UCCO-5213} [24-192]

1956 VA - Conception (2016) {Prestige, Concord, Universal UCCO-5213} [24-192]
Стили:
Издатель (лейбл):
Номер по каталогу:
UCCO-5213
Носитель:
WEB
Формат:
PCM
Тип рипа:
tracks+.cue
Контейнер:
FLAC (*.flac)
Количество каналов:
2.0
Разрядность/ЧД:
24/192
Битрейт аудио:
lossless
Время звучания:
00:39:44
Наличие сканов:
web
Релизёр (источник):
M0p94ok
Доп. инфо:
 
Список сессий и состав

"Prezervation" - June 21, 1949 (NYC)

Stan Getz - Tenor sax
Al Haig - Piano
Gene Ramey - Bass
Stan Levey - Drums

изначально издан на сингле в 78rpm: "Intoit" - Prestige 818: Stan Getz - Battleground / Prezervation 1950 January 6 (NYC)

Stan Getz - Tenor sax
Al Haig - Piano
Tommy Potter - Bass
Roy Haynes - Drums
originally released on the 78rpm single:

"I May Be Wrong" - Prestige 867: Stan Getz - Intoit / You Stepped Out Of A Dream March 15 (NYC)

Don Ferrara, Howard McGhee, Al Porcino - Trumpets
J.J. Johnson, Kai Winding - Trombones
Charlie Kennedy - Alto sax
Georgie Auld, Zoot Sims - Tenor saxes
Gerry Mulligan - Baritone sax
Tony Aless - Piano
Chubby Jackson - Bass
Don Lamond - Drums

"So What"

Gerry Mulligan - Baritone sax
Zoot Sims - Tenor sax
Charlie Kennedy - Alto sax
J. J. Johnson, Kai Winding - Trombones
Tony Aless - Piano
Chubby Jackson - Bass
Don Lamond - Drums
"I May Be Wrong" и "So What" изначально были изданы на  10"LP Chubby Jackson All Star Big Band (PRLP 105), хотя и под именем Gerry Mulligan.

"Odjenar", "Hibeck", "Yesterdays", "Ezz-Thetic" - 1951 March 8 (NYC)

Lee Konitz - Alto sax
Miles Davis - Trumpet
Sal Mosca - Piano
Billy Bauer - Guitar
Arnold Fishkin - Bass
Max Roach - Drums

"Indian Summer", "Duet for Saxophone and Guitar" - March 13 (NYC)

Lee Konitz - Alto sax
Billy Bauer - Guitar
Все шесть композиций Ли Конитца (Lee Konitz) были изначально изданы на 10"LP Lee Konitz: The New Sounds (PRLP 116), который польностью вошёл в это переиздание. Треки с Майлсом Дэвисом (Miles Davis) в качестве сайдмена были записаны после первой сессии Дэвиса для Prestige, и перед собственным дебютным альбомом Дэвиса, также названным The New Sounds (PRLP 124). Конитц и Дэвис ранее работали вместе над записью Birth of the Cool.

"Conception", "My Old Flame" - October 5 (Apex Studios, NYC)

Miles Davis - Trumpet
Sonny Rollins - Tenor sax
Walter Bishop - Piano
Tommy Potter - Bass
Art Blakey - Drums
Оба трека Майлса Дэвиса (Miles Davis) были ранее изданы на первом альбоме Miles Davis: the New Sounds (PRLP 124). Остальные два трека из этого альбома вошли на Dig (PRLP 7012), а "Conception" и "My Old Flame" были добавлены в качестве бонус треков к последующему переизданию Dig на CD.

Лог проверки качества
foobar2000 1.3.13 / Dynamic Range Meter 1.1.1
log date: 2017-09-10 16:28:13

--------------------------------------------------------------------------------
Analyzed: Gerry Mulligan & Zoot Sims / Conception (1)
          Gerry Mulligan / Conception (2)
          Lee Konitz & Miles Davis / Conception (3-6)
          Lee Konitz / Conception (7-8)
          Miles Davis & Sonny Rollins / Conception (9-10)
          Stan Getz / Conception (11-12)
--------------------------------------------------------------------------------

DR         Peak         RMS     Duration Track
--------------------------------------------------------------------------------
DR12      -1.44 dB   -13.88 dB      2:44 12-So What
DR13      -0.21 dB   -15.75 dB      3:30 11-I May Be Wrong
DR10      -0.10 dB   -13.48 dB      2:55 01-Odjenar
DR12      -0.98 dB   -15.38 dB      3:09 02-Hibeck
DR10      -0.90 dB   -14.91 dB      2:29 03-Yesterdays
DR11      -0.92 dB   -13.95 dB      2:56 04-Ezz-thetic
DR12      -1.65 dB   -15.91 dB      2:37 05-Indian Summer
DR11      -2.06 dB   -15.88 dB      2:41 06-Duet For Saxophone And Guitar
DR11      -0.10 dB   -12.04 dB      4:03 07-Conception
DR11      -1.49 dB   -15.98 dB      6:37 08-My Old Flame
DR13      -1.92 dB   -18.05 dB      3:22 09-Intoit
DR11      -1.78 dB   -15.86 dB      2:45 10-Prezervation
--------------------------------------------------------------------------------

Number of tracks:  12
Official DR value: DR11

Samplerate:        192000 Hz
Channels:          2
Bits per sample:   24
Bitrate:           3304 kbps
Codec:             FLAC
================================================================================
Any questions - support@pro-jazz.com. Есть вопросы - support@pro-jazz.com
17:56
256
Нет комментариев. Ваш будет первым!