Поиск

1954 Mel Powell - Heart and Soul (2020) {Nagel Heyer} [24-44,1]

1954 Mel Powell - Heart and Soul (2020) {Nagel Heyer} [24-44,1]
Дата издания диска:
21 августа 2020
Издатель (лейбл):
Битрейт аудио:
lossless

Треклист:

01 - If Dreams Come True 03:45
02 - You're My Thrill 05:23
03 - Rosetta 02:54
04 - Makin' Whoopee 04:52
05 - California, Here I Come 03:12
06 - Beale Street Blues 03:35
07 - Three Little Words 03:12
08 - The Best Things in Life Are Free 02:42
09 - Borderline 03:32
10 - Take Me in Your Arms 04:11
11 - What's New 08:49
12 - Liza 03:42
13 - Cross Your Heart 02:21
14 - Button up Your Overcoat 03:22
15 - Thigamagig 02:32
16 - Avalon 03:41
17 - Bouquet 04:56
18 - Ain't She Sweet 04:16
19 - Quin and Sonic 03:47

Доп. инфо:

Формат записи/Источник записи: [TR24][OF]
Издание: Remastered
Год издания/переиздания диска: 1954/2020
Продолжительность: 01:14:44
Наличие сканов в содержимом раздачи: Нет
Контейнер: FLAC (*.flac)
Тип рипа: tracks
Разрядность: 24/44,1
Количество каналов: 2.0
Источник (релизер): Qobuz

Лог проверки качества
foobar2000 1.4.3 / Dynamic Range Meter 1.1.1
log date: 2020-09-24 17:54:59

--------------------------------------------------------------------------------
Analyzed: Mel Powell / Heart and Soul
--------------------------------------------------------------------------------

DR         Peak         RMS     Duration Track
--------------------------------------------------------------------------------
DR9       -1.00 dB   -12.62 dB      3:45 01-If Dreams Come True
DR10      -1.00 dB   -14.82 dB      5:24 02-You're My Thrill
DR8       -1.00 dB   -12.54 dB      2:54 03-Rosetta
DR8       -1.00 dB   -11.55 dB      4:53 04-Makin' Whoopee
DR8       -1.00 dB   -11.71 dB      3:12 05-California, Here I Come
DR9       -1.00 dB   -12.99 dB      3:36 06-Beale Street Blues
DR9       -1.00 dB   -12.84 dB      3:12 07-Three Little Words
DR9       -1.00 dB   -11.94 dB      2:42 08-The Best Things in Life Are Free
DR9       -1.00 dB   -12.04 dB      3:32 09-Borderline
DR9       -1.00 dB   -12.89 dB      4:12 10-Take Me in Your Arms
DR9       -1.00 dB   -13.13 dB      8:49 11-What's New
DR8       -1.00 dB   -11.62 dB      3:43 12-Liza
DR9       -1.00 dB   -11.41 dB      2:22 13-Cross Your Heart
DR8       -1.00 dB   -11.10 dB      3:22 14-Button up Your Overcoat
DR9       -1.00 dB   -11.68 dB      2:33 15-Thigamagig
DR8       -1.00 dB   -11.31 dB      3:42 16-Avalon
DR9       -1.00 dB   -12.48 dB      4:56 17-Bouquet
DR9       -1.00 dB   -11.37 dB      4:16 18-Ain't She Sweet
DR8       -1.00 dB   -11.64 dB      3:47 19-Quin and Sonic
--------------------------------------------------------------------------------

Number of tracks:  19
Official DR value: DR9

Samplerate:        44100 Hz
Channels:          2
Bits per sample:   24
Bitrate:           1570 kbps
Codec:             FLAC
================================================================================
Приватный:
Нет (DHT включён)
Размер:
809.93 Мб (849,272,208 байт) » файлов: 24
Участники:
0 раздают, 0 качают (0 участников всего)
Внешние участники:
--- [ Обновить ]
Скорость:
8.98 Кб/c 0/c
No seeders - write a personal message to user M0p94ok. Нет сидеров - пишите личное сообщение пользователю M0p94ok.
04:32
16
Нет комментариев. Ваш будет первым!