Поиск

1954-1959 Charlie Shavers feat. Maxine Sullivan - Four Classic Albums Plus (2013) {Avid Jazz} [2CD]

1954-1959 Charlie Shavers feat. Maxine Sullivan - Four Classic Albums Plus (2013) {Avid Jazz} [2CD]
Стили:
Дата издания диска:
5 мая 2013
Номер по каталогу:
EMSC1085
Носитель:
CD
Тип рипа:
tracks+.cue
Аудиокодек:
FLAC (*.flac)
Битрейт аудио:
lossless
Время звучания:
02:36:13
Наличие сканов:
да
Страна-производитель диска (релиза):
UK
Релизёр (источник):
ssagwebster

Треклист:

CD1 {01:16:25}
Tribute to Andy Razaf (1956)

01. Keepin' Out of Mischief Now (2:50)
02. How Can You Face Me? (3:19)
03. S'posin' (3:38)
04. My Fate Is in Your Hands (3:17)
05. Stompin' at the Savoy (3:18)
06. Honeysuckle Rose (3:11)
07. Massachusetts (3:59)
08. Memories of You (4:47)
09. Ain't Misbehavin' (3:22)
10. Mound Bayou (3:33)
11. Christopher Columbus (2:22)
12. Blue Turning Grey Over You (2:32)
Flow Gently, Sweet Rhythm (1955)
13. Rose Room (4:53)
14. Molly Malone (2:36)
15. If I Had a Ribbon Bow (2:45)
16. Loch Lomond (2:19)
17. Oh No, John (2:26)
18. Windy (3:20)
19. Wraggle Taggle Gipsies (3:36)
20. Flow Gently Sweet Rhythm (3:48)
Horn O'Plenty (1954)
21. Dark Eyes (4:22)
22. Moten Swing (6:12)

CD2 {01:19:48}
Horn O'Plenty (1954) (continued)

01. Dawn on the Desert (3:37)
02. Story of the Jazz Trumpet: Young Man with a Horn/When It's Sleepy Time Down South/After You've Gone/Echoes of Harlem/And the Angels Sing/Ciribiribin/Salt Peanuts (8:13)
The Most Intimate (1955)
03. Ill Wind (2:59)
04. Stormy Weather (3:47)
05. Let's Fall in Love (3:52)
06. I Cover the Waterfront (3:26)
07. You're Mine You (3:29)
08. Out of Nowhere (3:59)
Blue Stompin' (1959)
09. Blue Stompin' (6:27)
10. Windy (6:55)
11. With a Song in My Heart (5:04)
12. Midnight (11:05)
13. Fancy Pants (4:34)
14. The Blast Off (4:40)
Flow Gently, Sweet Rhythm (1955) (continued)
15. Jackie Boy (2:32)
16. Barbara Allen (2:26)
17. A Brown Bird Singing (2:43)

Состав:
  • Buster Bailey    Clarinet
  • Louis Barnum    Drums
  • Aaron Bell    Bass
  • Al "Jazzbo" Collins    Narrator
  • Shirley Hoskins Collins    Original Liner Notes
  • Hank D'Amico    Clarinet
  • Leonard Feather    Original Liner Notes, Piano
  • Panama Francis    Drums
  • Ira Gitler    Original Liner Notes
  • Milt Hinton    Bass
  • Dick Hyman    Harpsichord, Organ, Piano
  • Hilton Jefferson    Sax (Alto)
  • Osie Johnson    Drums
  • Kenny Kersey    Piano
  • Billy Kyle    Piano
  • Wendell Marshall    Bass
  • Benny Morton    Trombone
  • Oscar Pettiford    Bass
  • Specs Powell    Drums
  • Russell Procope    Sax (Alto)
  • Jerome Richardson    Flute, Sax (Alto, Soprano, Tenor, Baritone)
  • Charlie Shavers    Bandleader, Composer, Trumpet
  • Hal Singer    Sax (Tenor)
  • Maxine Sullivan    Vocals
Лог создания рипа
Exact Audio Copy V1.3 from 2. September 2016

EAC extraction logfile from 14. July 2020, 17:54

Charlie Shavers / Four Classic Albums Plus - CD1

Used drive  : TSSTcorpCDDVDW SH-224FB   Adapter: 1  ID: 0

Read mode               : Secure
Utilize accurate stream : Yes
Defeat audio cache      : Yes
Make use of C2 pointers : No

Read offset correction                      : 6
Overread into Lead-In and Lead-Out          : No
Fill up missing offset samples with silence : Yes
Delete leading and trailing silent blocks   : No
Null samples used in CRC calculations       : Yes
Used interface                              : Native Win32 interface for Win NT & 2000
Gap handling                                : Appended to previous track

Used output format              : User Defined Encoder
Selected bitrate                : 128 kBit/s
Quality                         : High
Add ID3 tag                     : No
Command line compressor         : C:\Program Files (x86)\Exact Audio Copy\Flac\flac.exe
Additional command line options : -V -8 -T "Genre=%genre%" -T "Artist=%artist%" -T "Title=%title%" -T "Album=%albumtitle%" -T "Date=%year%" -T "Tracknumber=%tracknr%" -T "Comment=%comment%" %source%

TOC of the extracted CD

     Track |   Start  |  Length  | Start sector | End sector
    ---------------------------------------------------------
        1  |  0:00.00 |  2:49.72 |         0    |    12746
        2  |  2:49.72 |  3:19.13 |     12747    |    27684
        3  |  6:09.10 |  3:37.38 |     27685    |    43997
        4  |  9:46.48 |  3:17.26 |     43998    |    58798
        5  | 13:03.74 |  3:17.60 |     58799    |    73633
        6  | 16:21.59 |  3:10.72 |     73634    |    87955
        7  | 19:32.56 |  3:58.48 |     87956    |   105853
        8  | 23:31.29 |  4:47.17 |    105854    |   127395
        9  | 28:18.46 |  3:21.73 |    127396    |   142543
       10  | 31:40.44 |  3:32.71 |    142544    |   158514
       11  | 35:13.40 |  2:22.17 |    158515    |   169181
       12  | 37:35.57 |  2:31.54 |    169182    |   180560
       13  | 40:07.36 |  4:53.02 |    180561    |   202537
       14  | 45:00.38 |  2:35.65 |    202538    |   214227
       15  | 47:36.28 |  2:45.02 |    214228    |   226604
       16  | 50:21.30 |  2:19.33 |    226605    |   237062
       17  | 52:40.63 |  2:26.21 |    237063    |   248033
       18  | 55:07.09 |  3:20.09 |    248034    |   263042
       19  | 58:27.18 |  3:36.09 |    263043    |   279251
       20  | 62:03.27 |  3:48.29 |    279252    |   296380
       21  | 65:51.56 |  4:21.52 |    296381    |   316007
       22  | 70:13.33 |  6:12.18 |    316008    |   343925

Track  1

     Filename E:\ssagwebster\Charlie Shavers Featuring Maxine Sullivan - Four Classic Albums Plus (2CD, 2013)\CD1\01. Keepin' Out Of Mischief Now.wav

     Pre-gap length  0:00:02.00

     Peak level 93.3 %
     Extraction speed 1.5 X
     Track quality 99.9 %
     Test CRC F5C4FE82
     Copy CRC F5C4FE82
     Accurately ripped (confidence 4)  [B99EBE59]  (AR v2)
     Copy OK

Track  2

     Filename E:\ssagwebster\Charlie Shavers Featuring Maxine Sullivan - Four Classic Albums Plus (2CD, 2013)\CD1\02. How Can You Face Me.wav

     Pre-gap length  0:00:03.58

     Peak level 89.1 %
     Extraction speed 1.7 X
     Track quality 99.9 %
     Test CRC 62A6BC03
     Copy CRC 62A6BC03
     Accurately ripped (confidence 4)  [65EB717A]  (AR v2)
     Copy OK

Track  3

     Filename E:\ssagwebster\Charlie Shavers Featuring Maxine Sullivan - Four Classic Albums Plus (2CD, 2013)\CD1\03. S'posin'.wav

     Pre-gap length  0:00:03.58

     Peak level 74.0 %
     Extraction speed 2.2 X
     Track quality 100.0 %
     Test CRC 659BD46D
     Copy CRC 659BD46D
     Accurately ripped (confidence 4)  [A0D854BA]  (AR v2)
     Copy OK

Track  4

     Filename E:\ssagwebster\Charlie Shavers Featuring Maxine Sullivan - Four Classic Albums Plus (2CD, 2013)\CD1\04. My Fate Is In Your Hands.wav

     Pre-gap length  0:00:03.58

     Peak level 93.9 %
     Extraction speed 2.3 X
     Track quality 100.0 %
     Test CRC EDB1E5A0
     Copy CRC EDB1E5A0
     Accurately ripped (confidence 4)  [FD07AF3F]  (AR v2)
     Copy OK

Track  5

     Filename E:\ssagwebster\Charlie Shavers Featuring Maxine Sullivan - Four Classic Albums Plus (2CD, 2013)\CD1\05. Stompin' At The Savoy.wav

     Pre-gap length  0:00:03.58

     Peak level 87.8 %
     Extraction speed 2.4 X
     Track quality 100.0 %
     Test CRC C082CAF1
     Copy CRC C082CAF1
     Accurately ripped (confidence 4)  [84AED250]  (AR v2)
     Copy OK

Track  6

     Filename E:\ssagwebster\Charlie Shavers Featuring Maxine Sullivan - Four Classic Albums Plus (2CD, 2013)\CD1\06. Honeysuckle Rose.wav

     Pre-gap length  0:00:03.58

     Peak level 85.0 %
     Extraction speed 2.5 X
     Track quality 100.0 %
     Test CRC 3FCD7B01
     Copy CRC 3FCD7B01
     Accurately ripped (confidence 4)  [CF079B0E]  (AR v2)
     Copy OK

Track  7

     Filename E:\ssagwebster\Charlie Shavers Featuring Maxine Sullivan - Four Classic Albums Plus (2CD, 2013)\CD1\07. Massachusetts.wav

     Pre-gap length  0:00:03.58

     Peak level 75.9 %
     Extraction speed 2.7 X
     Track quality 100.0 %
     Test CRC B4BCDEE6
     Copy CRC B4BCDEE6
     Accurately ripped (confidence 4)  [9FFB3BCB]  (AR v2)
     Copy OK

Track  8

     Filename E:\ssagwebster\Charlie Shavers Featuring Maxine Sullivan - Four Classic Albums Plus (2CD, 2013)\CD1\08. Memories Of You.wav

     Pre-gap length  0:00:03.58

     Peak level 81.1 %
     Extraction speed 2.9 X
     Track quality 100.0 %
     Test CRC F8C67EBC
     Copy CRC F8C67EBC
     Accurately ripped (confidence 4)  [F10F9922]  (AR v2)
     Copy OK

Track  9

     Filename E:\ssagwebster\Charlie Shavers Featuring Maxine Sullivan - Four Classic Albums Plus (2CD, 2013)\CD1\09. Ain't Misbehavin'.wav

     Pre-gap length  0:00:03.58

     Peak level 80.2 %
     Extraction speed 2.9 X
     Track quality 100.0 %
     Test CRC 5C41F82C
     Copy CRC 5C41F82C
     Accurately ripped (confidence 4)  [0D83C990]  (AR v2)
     Copy OK

Track 10

     Filename E:\ssagwebster\Charlie Shavers Featuring Maxine Sullivan - Four Classic Albums Plus (2CD, 2013)\CD1\10. Mound Bayou.wav

     Pre-gap length  0:00:03.58

     Peak level 91.3 %
     Extraction speed 3.0 X
     Track quality 100.0 %
     Test CRC 185C6DBB
     Copy CRC 185C6DBB
     Accurately ripped (confidence 4)  [21540417]  (AR v2)
     Copy OK

Track 11

     Filename E:\ssagwebster\Charlie Shavers Featuring Maxine Sullivan - Four Classic Albums Plus (2CD, 2013)\CD1\11. Christopher Columbus.wav

     Pre-gap length  0:00:03.58

     Peak level 78.8 %
     Extraction speed 2.8 X
     Track quality 100.0 %
     Test CRC 68E1374C
     Copy CRC 68E1374C
     Accurately ripped (confidence 4)  [33F4142A]  (AR v2)
     Copy OK

Track 12

     Filename E:\ssagwebster\Charlie Shavers Featuring Maxine Sullivan - Four Classic Albums Plus (2CD, 2013)\CD1\12. Blue Turning Grey Over You.wav

     Pre-gap length  0:00:03.58

     Peak level 88.2 %
     Extraction speed 2.2 X
     Track quality 99.9 %
     Test CRC B6904935
     Copy CRC B6904935
     Accurately ripped (confidence 4)  [12AE497D]  (AR v2)
     Copy OK

Track 13

     Filename E:\ssagwebster\Charlie Shavers Featuring Maxine Sullivan - Four Classic Albums Plus (2CD, 2013)\CD1\13. Rose Room.wav

     Pre-gap length  0:00:03.58

     Peak level 70.8 %
     Extraction speed 3.4 X
     Track quality 100.0 %
     Test CRC FBC504EA
     Copy CRC FBC504EA
     Accurately ripped (confidence 4)  [D1105B68]  (AR v2)
     Copy OK

Track 14

     Filename E:\ssagwebster\Charlie Shavers Featuring Maxine Sullivan - Four Classic Albums Plus (2CD, 2013)\CD1\14. Molly Malone.wav

     Pre-gap length  0:00:03.58

     Peak level 66.0 %
     Extraction speed 3.1 X
     Track quality 100.0 %
     Test CRC 9089B416
     Copy CRC 9089B416
     Accurately ripped (confidence 4)  [16F03E64]  (AR v2)
     Copy OK

Track 15

     Filename E:\ssagwebster\Charlie Shavers Featuring Maxine Sullivan - Four Classic Albums Plus (2CD, 2013)\CD1\15. If I Had A Ribbon Bow.wav

     Pre-gap length  0:00:03.58

     Peak level 58.2 %
     Extraction speed 2.4 X
     Track quality 99.9 %
     Test CRC ED5F1A8C
     Copy CRC ED5F1A8C
     Accurately ripped (confidence 4)  [24171B7F]  (AR v2)
     Copy OK

Track 16

     Filename E:\ssagwebster\Charlie Shavers Featuring Maxine Sullivan - Four Classic Albums Plus (2CD, 2013)\CD1\16. Loch Lomond.wav

     Pre-gap length  0:00:03.58

     Peak level 70.7 %
     Extraction speed 2.1 X
     Track quality 99.9 %
     Test CRC B82D1645
     Copy CRC B82D1645
     Accurately ripped (confidence 4)  [F0306E27]  (AR v2)
     Copy OK

Track 17

     Filename E:\ssagwebster\Charlie Shavers Featuring Maxine Sullivan - Four Classic Albums Plus (2CD, 2013)\CD1\17. Oh No, John.wav

     Pre-gap length  0:00:03.58

     Peak level 65.4 %
     Extraction speed 3.3 X
     Track quality 100.0 %
     Test CRC 993F4600
     Copy CRC 993F4600
     Accurately ripped (confidence 4)  [0A48D504]  (AR v2)
     Copy OK

Track 18

     Filename E:\ssagwebster\Charlie Shavers Featuring Maxine Sullivan - Four Classic Albums Plus (2CD, 2013)\CD1\18. Windy.wav

     Pre-gap length  0:00:03.58

     Peak level 66.8 %
     Extraction speed 3.5 X
     Track quality 100.0 %
     Test CRC 12F5EE8C
     Copy CRC 12F5EE8C
     Accurately ripped (confidence 3)  [B461CD45]  (AR v2)
     Copy OK

Track 19

     Filename E:\ssagwebster\Charlie Shavers Featuring Maxine Sullivan - Four Classic Albums Plus (2CD, 2013)\CD1\19. Wraggle Taggle Gypsies.wav

     Pre-gap length  0:00:03.58

     Peak level 70.8 %
     Extraction speed 2.8 X
     Track quality 99.9 %
     Test CRC 0595C56E
     Copy CRC 0595C56E
     Accurately ripped (confidence 3)  [11D56EB6]  (AR v2)
     Copy OK

Track 20

     Filename E:\ssagwebster\Charlie Shavers Featuring Maxine Sullivan - Four Classic Albums Plus (2CD, 2013)\CD1\20. Flow Gently Sweet Rhythm.wav

     Pre-gap length  0:00:03.58

     Peak level 74.9 %
     Extraction speed 2.9 X
     Track quality 99.9 %
     Test CRC DC823D15
     Copy CRC DC823D15
     Accurately ripped (confidence 4)  [DE7FA4E4]  (AR v2)
     Copy OK

Track 21

     Filename E:\ssagwebster\Charlie Shavers Featuring Maxine Sullivan - Four Classic Albums Plus (2CD, 2013)\CD1\21. Dark Eyes.wav

     Pre-gap length  0:00:03.58

     Peak level 74.9 %
     Extraction speed 3.9 X
     Track quality 100.0 %
     Test CRC E77BC033
     Copy CRC E77BC033
     Accurately ripped (confidence 4)  [9B654F44]  (AR v2)
     Copy OK

Track 22

     Filename E:\ssagwebster\Charlie Shavers Featuring Maxine Sullivan - Four Classic Albums Plus (2CD, 2013)\CD1\22. Moten Swing.wav

     Pre-gap length  0:00:03.58

     Peak level 79.3 %
     Extraction speed 4.2 X
     Track quality 100.0 %
     Test CRC 56E143B9
     Copy CRC 56E143B9
     Accurately ripped (confidence 4)  [85630150]  (AR v2)
     Copy OK

All tracks accurately ripped

No errors occurred

End of status report

---- CUETools DB Plugin V2.1.6

[CTDB TOCID: nTNmPEKJSG9OwURPIUAVT3TtCkk-] found
Submit result: nTNmPEKJSG9OwURPIUAVT3TtCkk- has been uploaded
Track | CTDB Status
  1   | (1/1) Accurately ripped
  2   | (1/1) Accurately ripped
  3   | (1/1) Accurately ripped
  4   | (1/1) Accurately ripped
  5   | (1/1) Accurately ripped
  6   | (1/1) Accurately ripped
  7   | (1/1) Accurately ripped
  8   | (1/1) Accurately ripped
  9   | (1/1) Accurately ripped
 10   | (1/1) Accurately ripped
 11   | (1/1) Accurately ripped
 12   | (1/1) Accurately ripped
 13   | (1/1) Accurately ripped
 14   | (1/1) Accurately ripped
 15   | (1/1) Accurately ripped
 16   | (1/1) Accurately ripped
 17   | (1/1) Accurately ripped
 18   | (0/1) No match
 19   | (0/1) No match
 20   | (1/1) Accurately ripped
 21   | (1/1) Accurately ripped
 22   | (1/1) Accurately ripped

==== Log checksum 7625C9CEC7CCA804C5A1678F1539023A447FEA2EB6200B0FD29839F9BB883FBB ====
Exact Audio Copy V1.3 from 2. September 2016

EAC extraction logfile from 14. July 2020, 19:12

Charlie Shavers / Four Classic Albums Plus - CD2

Used drive  : TSSTcorpCDDVDW SH-224FB   Adapter: 1  ID: 0

Read mode               : Secure
Utilize accurate stream : Yes
Defeat audio cache      : Yes
Make use of C2 pointers : No

Read offset correction                      : 6
Overread into Lead-In and Lead-Out          : No
Fill up missing offset samples with silence : Yes
Delete leading and trailing silent blocks   : No
Null samples used in CRC calculations       : Yes
Used interface                              : Native Win32 interface for Win NT & 2000
Gap handling                                : Appended to previous track

Used output format              : User Defined Encoder
Selected bitrate                : 128 kBit/s
Quality                         : High
Add ID3 tag                     : No
Command line compressor         : C:\Program Files (x86)\Exact Audio Copy\Flac\flac.exe
Additional command line options : -V -8 -T "Genre=%genre%" -T "Artist=%artist%" -T "Title=%title%" -T "Album=%albumtitle%" -T "Date=%year%" -T "Tracknumber=%tracknr%" -T "Comment=%comment%" %source%

TOC of the extracted CD

     Track |   Start  |  Length  | Start sector | End sector
    ---------------------------------------------------------
        1  |  0:00.00 |  3:36.66 |         0    |    16265
        2  |  3:36.66 |  8:13.37 |     16266    |    53277
        3  | 11:50.28 |  2:58.50 |     53278    |    66677
        4  | 14:49.03 |  3:46.50 |     66678    |    83677
        5  | 18:35.53 |  3:52.30 |     83678    |   101107
        6  | 22:28.08 |  3:26.10 |    101108    |   116567
        7  | 25:54.18 |  3:28.68 |    116568    |   132235
        8  | 29:23.11 |  3:59.01 |    132236    |   150161
        9  | 33:22.12 |  6:27.19 |    150162    |   179205
       10  | 39:49.31 |  6:54.39 |    179206    |   210294
       11  | 46:43.70 |  5:03.50 |    210295    |   233069
       12  | 51:47.45 | 11:05.11 |    233070    |   282955
       13  | 62:52.56 |  4:33.49 |    282956    |   303479
       14  | 67:26.30 |  4:39.53 |    303480    |   324457
       15  | 72:06.08 |  2:31.63 |    324458    |   335845
       16  | 74:37.71 |  2:25.63 |    335846    |   346783
       17  | 77:03.59 |  2:43.31 |    346784    |   359039

Track  1

     Filename E:\ssagwebster\Charlie Shavers Featuring Maxine Sullivan - Four Classic Albums Plus (2CD, 2013)\CD2\01. Dawn On The Desert.wav

     Pre-gap length  0:00:02.00

     Peak level 79.4 %
     Extraction speed 2.0 X
     Track quality 100.0 %
     Test CRC AF53A999
     Copy CRC AF53A999
     Accurately ripped (confidence 3)  [48849D2B]  (AR v2)
     Copy OK

Track  2

     Filename E:\ssagwebster\Charlie Shavers Featuring Maxine Sullivan - Four Classic Albums Plus (2CD, 2013)\CD2\02. Story Of The Jazz Trumpet.wav

     Pre-gap length  0:00:03.57

     Peak level 79.4 %
     Extraction speed 2.5 X
     Track quality 100.0 %
     Test CRC 817FC590
     Copy CRC 817FC590
     Accurately ripped (confidence 3)  [B6F0C678]  (AR v2)
     Copy OK

Track  3

     Filename E:\ssagwebster\Charlie Shavers Featuring Maxine Sullivan - Four Classic Albums Plus (2CD, 2013)\CD2\03. III Wind.wav

     Pre-gap length  0:00:03.58

     Peak level 74.9 %
     Extraction speed 2.4 X
     Track quality 100.0 %
     Test CRC BBD4613D
     Copy CRC BBD4613D
     Accurately ripped (confidence 3)  [D0DD2AE2]  (AR v2)
     Copy OK

Track  4

     Filename E:\ssagwebster\Charlie Shavers Featuring Maxine Sullivan - Four Classic Albums Plus (2CD, 2013)\CD2\04. Stormy Weather.wav

     Peak level 76.0 %
     Extraction speed 2.6 X
     Track quality 100.0 %
     Test CRC D80F0EF2
     Copy CRC D80F0EF2
     Accurately ripped (confidence 3)  [F09E5FBD]  (AR v2)
     Copy OK

Track  5

     Filename E:\ssagwebster\Charlie Shavers Featuring Maxine Sullivan - Four Classic Albums Plus (2CD, 2013)\CD2\05. Let's Fall In Love.wav

     Peak level 66.0 %
     Extraction speed 2.3 X
     Track quality 99.9 %
     Test CRC B97A98C2
     Copy CRC B97A98C2
     Accurately ripped (confidence 3)  [12359302]  (AR v2)
     Copy OK

Track  6

     Filename E:\ssagwebster\Charlie Shavers Featuring Maxine Sullivan - Four Classic Albums Plus (2CD, 2013)\CD2\06. I Cover The Waterfront.wav

     Pre-gap length  0:00:03.58

     Peak level 79.4 %
     Extraction speed 2.9 X
     Track quality 100.0 %
     Test CRC 10221038
     Copy CRC 10221038
     Accurately ripped (confidence 3)  [E6F95CBD]  (AR v2)
     Copy OK

Track  7

     Filename E:\ssagwebster\Charlie Shavers Featuring Maxine Sullivan - Four Classic Albums Plus (2CD, 2013)\CD2\07. You're Mine You.wav

     Peak level 81.2 %
     Extraction speed 3.0 X
     Track quality 100.0 %
     Test CRC 114EDC03
     Copy CRC 114EDC03
     Accurately ripped (confidence 3)  [607B0A16]  (AR v2)
     Copy OK

Track  8

     Filename E:\ssagwebster\Charlie Shavers Featuring Maxine Sullivan - Four Classic Albums Plus (2CD, 2013)\CD2\08. Out Of Nowhere.wav

     Peak level 85.2 %
     Extraction speed 2.4 X
     Track quality 99.9 %
     Test CRC 1058A54F
     Copy CRC 1058A54F
     Accurately ripped (confidence 3)  [812FEAA8]  (AR v2)
     Copy OK

Track  9

     Filename E:\ssagwebster\Charlie Shavers Featuring Maxine Sullivan - Four Classic Albums Plus (2CD, 2013)\CD2\09. Blue Stompin'.wav

     Pre-gap length  0:00:03.58

     Peak level 78.7 %
     Extraction speed 3.5 X
     Track quality 100.0 %
     Test CRC D5416F6F
     Copy CRC D5416F6F
     Accurately ripped (confidence 4)  [D9FDF051]  (AR v2)
     Copy OK

Track 10

     Filename E:\ssagwebster\Charlie Shavers Featuring Maxine Sullivan - Four Classic Albums Plus (2CD, 2013)\CD2\10. Windy.wav

     Pre-gap length  0:00:02.58

     Peak level 100.0 %
     Extraction speed 3.7 X
     Track quality 100.0 %
     Test CRC 07ABD8E7
     Copy CRC 07ABD8E7
     Accurately ripped (confidence 4)  [1F8506C5]  (AR v2)
     Copy OK

Track 11

     Filename E:\ssagwebster\Charlie Shavers Featuring Maxine Sullivan - Four Classic Albums Plus (2CD, 2013)\CD2\11. With A Song In My Heart.wav

     Pre-gap length  0:00:03.58

     Peak level 96.5 %
     Extraction speed 3.7 X
     Track quality 100.0 %
     Test CRC 7A4E64D1
     Copy CRC 7A4E64D1
     Accurately ripped (confidence 4)  [E3F83B57]  (AR v2)
     Copy OK

Track 12

     Filename E:\ssagwebster\Charlie Shavers Featuring Maxine Sullivan - Four Classic Albums Plus (2CD, 2013)\CD2\12. Midnight.wav

     Pre-gap length  0:00:03.58

     Peak level 97.0 %
     Extraction speed 4.2 X
     Track quality 100.0 %
     Test CRC FBA6AA1C
     Copy CRC FBA6AA1C
     Accurately ripped (confidence 4)  [496691B7]  (AR v2)
     Copy OK

Track 13

     Filename E:\ssagwebster\Charlie Shavers Featuring Maxine Sullivan - Four Classic Albums Plus (2CD, 2013)\CD2\13. Fancy Pants.wav

     Pre-gap length  0:00:02.58

     Peak level 95.3 %
     Extraction speed 4.1 X
     Track quality 100.0 %
     Test CRC D23635D8
     Copy CRC D23635D8
     Accurately ripped (confidence 4)  [4BF53EF8]  (AR v2)
     Copy OK

Track 14

     Filename E:\ssagwebster\Charlie Shavers Featuring Maxine Sullivan - Four Classic Albums Plus (2CD, 2013)\CD2\14. The Blast Off.wav

     Pre-gap length  0:00:03.58

     Peak level 99.7 %
     Extraction speed 4.2 X
     Track quality 100.0 %
     Test CRC EF8EB5A1
     Copy CRC EF8EB5A1
     Accurately ripped (confidence 4)  [6B1F3396]  (AR v2)
     Copy OK

Track 15

     Filename E:\ssagwebster\Charlie Shavers Featuring Maxine Sullivan - Four Classic Albums Plus (2CD, 2013)\CD2\15. Jackie Boy.wav

     Pre-gap length  0:00:03.58

     Peak level 59.5 %
     Extraction speed 3.9 X
     Track quality 100.0 %
     Test CRC 3365A7D7
     Copy CRC 3365A7D7
     Accurately ripped (confidence 4)  [B8E28333]  (AR v2)
     Copy OK

Track 16

     Filename E:\ssagwebster\Charlie Shavers Featuring Maxine Sullivan - Four Classic Albums Plus (2CD, 2013)\CD2\16. Barbara Allen.wav

     Pre-gap length  0:00:03.58

     Peak level 44.6 %
     Extraction speed 3.9 X
     Track quality 100.0 %
     Test CRC B30DFEED
     Copy CRC B30DFEED
     Accurately ripped (confidence 4)  [70AB1FDC]  (AR v2)
     Copy OK

Track 17

     Filename E:\ssagwebster\Charlie Shavers Featuring Maxine Sullivan - Four Classic Albums Plus (2CD, 2013)\CD2\17. A Brown Bird Singing.wav

     Pre-gap length  0:00:03.58

     Peak level 62.3 %
     Extraction speed 4.0 X
     Track quality 100.0 %
     Test CRC 05B314FB
     Copy CRC 05B314FB
     Accurately ripped (confidence 4)  [0F9C7B1D]  (AR v2)
     Copy OK

All tracks accurately ripped

No errors occurred

End of status report

---- CUETools DB Plugin V2.1.6

[CTDB TOCID: N.P_lP.3tfB803cfDecw9UB3IIU-] found
Submit result: N.P_lP.3tfB803cfDecw9UB3IIU- has been confirmed
Track | CTDB Status
  1   | (2/2) Accurately ripped
  2   | (2/2) Accurately ripped
  3   | (2/2) Accurately ripped
  4   | (2/2) Accurately ripped
  5   | (2/2) Accurately ripped
  6   | (2/2) Accurately ripped
  7   | (2/2) Accurately ripped
  8   | (2/2) Accurately ripped
  9   | (2/2) Accurately ripped
 10   | (2/2) Accurately ripped
 11   | (2/2) Accurately ripped
 12   | (2/2) Accurately ripped
 13   | (2/2) Accurately ripped
 14   | (2/2) Accurately ripped
 15   | (2/2) Accurately ripped
 16   | (2/2) Accurately ripped
 17   | (2/2) Accurately ripped

==== Log checksum 2DE2C3B06A9F9D8F6C49B6B9354F031A93D42C07A957DCC3AE8C0ECCB9607AFC ====
По всем вопросам пишите личное сообщение пользователю M0p94ok.
12:27
273
Нет комментариев. Ваш будет первым!