Поиск

1953-1955 Ruby Braff - Linger Awhile {Vanguard 79608-2} [CD]

1953-1955 Ruby Braff - Linger Awhile {Vanguard 79608-2} [CD]
Издатель (лейбл):
Треклист:
Носитель: CD
Страна-производитель диска (релиза): США
Год издания: 1999
Издатель (лейбл): Vanguard Records
Номер по каталогу: 79608-2
Аудиокодек: FLAC (*.flac)
Тип рипа: tracks+.cue
Битрейт аудио: lossless
Продолжительность: 69:11
Источник (релизер): redacted
Наличие сканов в содержимом раздачи: нет
Треклист:
01. Sweet Sue (9:19)
02. Ghost of a Chance (7:26)
03. Wishing (3:17)
04. I Cover the Waterfront (8:29)
05. Keeping Out of Mischief Now (5:53)
06. Linger Awhile (5:00)
07. I'm in the Market for You (5:51)
08. Romance in the Dark (6:56)
09. When You Wish Upon a Star (6:00)
10. I Can't Get Started (11:00)
Лог создания рипа
Exact Audio Copy V1.0 beta 1 from 15. November 2010

EAC extraction logfile from 11. November 2012, 15:40

Ruby Braff / Linger Awhile

Used drive  : hp      DVD A  DS8A4LH   Adapter: 0  ID: 0

Read mode               : Secure
Utilize accurate stream : Yes
Defeat audio cache      : Yes
Make use of C2 pointers : No

Read offset correction                      : 6
Overread into Lead-In and Lead-Out          : No
Fill up missing offset samples with silence : Yes
Delete leading and trailing silent blocks   : No
Null samples used in CRC calculations       : Yes
Used interface                              : Native Win32 interface for Win NT & 2000
Gap handling                                : Appended to previous track

Used output format              : User Defined Encoder
Selected bitrate                : 768 kBit/s
Quality                         : High
Add ID3 tag                     : No
Command line compressor         : C:\Program Files (x86)\Exact Audio Copy\FLAC\FLAC.EXE
Additional command line options : -V -8 -T "artist=%a" -T "title=%t" -T "album=%g" -T "date=%y" -T "tracknumber=%n" -T "genre=%m" %s

TOC of the extracted CD

     Track |   Start  |  Length  | Start sector | End sector
    ---------------------------------------------------------
        1  |  0:00.00 |  9:19.07 |         0    |    41931
        2  |  9:19.07 |  7:25.47 |     41932    |    75353
        3  | 16:44.54 |  3:17.16 |     75354    |    90144
        4  | 20:01.70 |  8:29.05 |     90145    |   128324
        5  | 28:31.00 |  5:52.69 |    128325    |   154793
        6  | 34:23.69 |  5:00.18 |    154794    |   177311
        7  | 39:24.12 |  5:50.39 |    177312    |   203600
        8  | 45:14.51 |  6:55.65 |    203601    |   234790
        9  | 52:10.41 |  5:59.41 |    234791    |   261756
       10  | 58:10.07 | 11:00.09 |    261757    |   311265

Track  1

     Filename C:\EAC Rips\Ruby Braff - 1999 - Linger Awhile\01 - Sweet Sue.wav

     Pre-gap length  0:00:02.00

     Peak level 84.3 %
     Extraction speed 3.5 X
     Track quality 100.0 %
     Test CRC 5A125F76
     Copy CRC 5A125F76
     Accurately ripped (confidence 1)  [99C3B084]
     Copy OK

Track  2

     Filename C:\EAC Rips\Ruby Braff - 1999 - Linger Awhile\02 - Ghost of a Chance.wav

     Peak level 97.7 %
     Extraction speed 3.6 X
     Track quality 99.9 %
     Test CRC 3CA90C6C
     Copy CRC 3CA90C6C
     Accurately ripped (confidence 1)  [59B7B896]
     Copy OK

Track  3

     Filename C:\EAC Rips\Ruby Braff - 1999 - Linger Awhile\03 - Wishing.wav

     Peak level 87.4 %
     Extraction speed 3.1 X
     Track quality 99.9 %
     Test CRC 01E70A6A
     Copy CRC 01E70A6A
     Accurately ripped (confidence 1)  [47A91D27]
     Copy OK

Track  4

     Filename C:\EAC Rips\Ruby Braff - 1999 - Linger Awhile\04 - I Cover the Waterfront.wav

     Peak level 95.4 %
     Extraction speed 4.3 X
     Track quality 99.9 %
     Test CRC 08BF2EC5
     Copy CRC 08BF2EC5
     Accurately ripped (confidence 1)  [0CF6389A]
     Copy OK

Track  5

     Filename C:\EAC Rips\Ruby Braff - 1999 - Linger Awhile\05 - Keeping Out of Mischief Now.wav

     Peak level 94.9 %
     Extraction speed 4.9 X
     Track quality 100.0 %
     Test CRC 70E1BAFA
     Copy CRC 70E1BAFA
     Accurately ripped (confidence 1)  [B41B7FE9]
     Copy OK

Track  6

     Filename C:\EAC Rips\Ruby Braff - 1999 - Linger Awhile\06 - Linger Awhile.wav

     Peak level 96.4 %
     Extraction speed 5.1 X
     Track quality 100.0 %
     Test CRC DE888F1E
     Copy CRC DE888F1E
     Accurately ripped (confidence 1)  [8A11D3F4]
     Copy OK

Track  7

     Filename C:\EAC Rips\Ruby Braff - 1999 - Linger Awhile\07 - I'm In The Market For You.wav

     Peak level 86.0 %
     Extraction speed 5.4 X
     Track quality 100.0 %
     Test CRC 1443665E
     Copy CRC 1443665E
     Accurately ripped (confidence 1)  [AE039A79]
     Copy OK

Track  8

     Filename C:\EAC Rips\Ruby Braff - 1999 - Linger Awhile\08 - Romance In the Dark.wav

     Peak level 86.3 %
     Extraction speed 5.7 X
     Track quality 100.0 %
     Test CRC C4097F38
     Copy CRC C4097F38
     Accurately ripped (confidence 1)  [48EC7D0D]
     Copy OK

Track  9

     Filename C:\EAC Rips\Ruby Braff - 1999 - Linger Awhile\09 - When You Wish Upon a Star.wav

     Peak level 96.3 %
     Extraction speed 5.9 X
     Track quality 100.0 %
     Test CRC 1C4DD832
     Copy CRC 1C4DD832
     Accurately ripped (confidence 1)  [77B1ED01]
     Copy OK

Track 10

     Filename C:\EAC Rips\Ruby Braff - 1999 - Linger Awhile\10 - I Can't Get Started.wav

     Peak level 97.7 %
     Extraction speed 6.5 X
     Track quality 100.0 %
     Test CRC 8BC96E8C
     Copy CRC 8BC96E8C
     Cannot be verified as accurate (confidence 1)  [BE0E4576], AccurateRip returned [B97C4576]
     Copy OK

 9 track(s) accurately ripped
 1 track(s) could not be verified as accurate

Some tracks could not be verified as accurate

No errors occurred

End of status report

==== Log checksum FD0C04D8E70A489C81A261DB64B2E8F328B844B7B65CC50E8B69DABA380EFE3B ====
Содержание индексной карты (.CUE)
REM GENRE Jazz
REM DATE 1999
REM DISCID 7010360A
REM COMMENT "ExactAudioCopy v1.0b1"
PERFORMER "Ruby Braff"
TITLE "Linger Awhile"
FILE "01 - Sweet Sue.wav" WAVE
  TRACK 01 AUDIO
    TITLE "Sweet Sue"
    PERFORMER "Ruby Braff"
    INDEX 01 00:00:00
FILE "02 - Ghost of a Chance.wav" WAVE
  TRACK 02 AUDIO
    TITLE "Ghost of a Chance"
    PERFORMER "Ruby Braff"
    INDEX 01 00:00:00
FILE "03 - Wishing.wav" WAVE
  TRACK 03 AUDIO
    TITLE "Wishing"
    PERFORMER "Ruby Braff"
    INDEX 01 00:00:00
FILE "04 - I Cover the Waterfront.wav" WAVE
  TRACK 04 AUDIO
    TITLE "I Cover the Waterfront"
    PERFORMER "Ruby Braff"
    INDEX 01 00:00:00
FILE "05 - Keeping Out of Mischief Now.wav" WAVE
  TRACK 05 AUDIO
    TITLE "Keeping Out of Mischief Now"
    PERFORMER "Ruby Braff"
    INDEX 01 00:00:00
FILE "06 - Linger Awhile.wav" WAVE
  TRACK 06 AUDIO
    TITLE "Linger Awhile"
    PERFORMER "Ruby Braff"
    INDEX 01 00:00:00
FILE "07 - I'm in the Market for You.wav" WAVE
  TRACK 07 AUDIO
    TITLE "I'm in the Market for You"
    PERFORMER "Ruby Braff"
    INDEX 01 00:00:00
FILE "08 - Romance in the Dark.wav" WAVE
  TRACK 08 AUDIO
    TITLE "Romance in the Dark"
    PERFORMER "Ruby Braff"
    INDEX 01 00:00:00
FILE "09 - When You Wish Upon a Star.wav" WAVE
  TRACK 09 AUDIO
    TITLE "When You Wish Upon a Star"
    PERFORMER "Ruby Braff"
    INDEX 01 00:00:00
FILE "10 - I Can't Get Started.wav" WAVE
  TRACK 10 AUDIO
    TITLE "I Can't Get Started"
    PERFORMER "Ruby Braff"
    INDEX 01 00:00:00
Лог проверки качества
[CUETools log; Date: 26.09.2018 0:00:43; Version: 2.1.5]
[CTDB TOCID: GrAaesc7lafRPpxswbnY2DqHdEI-] found.
Track | CTDB Status
  1   | (1/1) Accurately ripped
  2   | (1/1) Accurately ripped
  3   | (1/1) Accurately ripped
  4   | (1/1) Accurately ripped
  5   | (1/1) Accurately ripped
  6   | (1/1) Accurately ripped
  7   | (1/1) Accurately ripped
  8   | (1/1) Accurately ripped
  9   | (1/1) Accurately ripped
 10   | (1/1) Accurately ripped
[AccurateRip ID: 00199fad-00ca6a5f-7010360a] found.
Track   [  CRC   |   V2   ] Status
 01     [99c3b084|12001186] (0+2/2) Accurately ripped
 02     [59b7b896|57ac76c9] (0+2/2) Accurately ripped
 03     [47a91d27|9e641dea] (0+2/2) Accurately ripped
 04     [0cf6389a|88e7142c] (0+2/2) Accurately ripped
 05     [b41b7fe9|1e7c9402] (0+2/2) Accurately ripped
 06     [8a11d3f4|d0b258f5] (0+2/2) Accurately ripped
 07     [ae039a79|70bd7471] (0+2/2) Accurately ripped
 08     [48ec7d0d|991b0ac5] (0+2/2) Accurately ripped
 09     [77b1ed01|27b3c348] (0+2/2) Accurately ripped
 10     [be0e4576|9586ff8d] (0+2/2) Accurately ripped

Track Peak [ CRC32  ] [W/O NULL] [  LOG   ]
 --   97,7 [55D94497] [723EAB43]
 01   84,3 [5A125F76] [E39FB62B]   CRC32
 02   97,7 [3CA90C6C] [B9875054]   CRC32
 03   87,4 [01E70A6A] [CEA08D63]   CRC32
 04   95,4 [08BF2EC5] [8A614A93]   CRC32
 05   94,9 [70E1BAFA] [7023F988]   CRC32
 06   96,4 [DE888F1E] [43155E8F]   CRC32
 07   86,0 [1443665E] [22C806EC]   CRC32
 08   86,3 [C4097F38] [78F369DD]   CRC32
 09   96,3 [1C4DD832] [A3805D91]   CRC32
 10   97,7 [8BC96E8C] [4F510158]   CRC32
Приватный:
Нет (DHT включён)
Размер:
383.82 Мб (402,466,313 байт) » файлов: 17
Участники:
0 раздают, 0 качают (0 участников всего)
Внешние участники:
3 раздают, 1 качают (4 участников всего) [ Обновить ]
Нет сидеров - пишите личное сообщение M0p94ok. Не нравятся торренты? Участники группы Pro-jazz Club могут заказать прямую ссылку на скачивание из облака.
No seeders - write a personal message to M0p94ok. Don't like torrents? Members of Pro-jazz Club group can order a direct download link from the cloud.
23:36
115
Нет комментариев. Ваш будет первым!