Поиск

1952-1954 Barney Kessel - Salute To Charlie Christian (2002) {TIM 220304-203}

1952-1954 Barney Kessel - Salute To Charlie Christian (2002) {TIM 220304-203}
Издатель (лейбл):
Состав:

01: New York, September 13,1952
Oscar Peterson (p), Barney Kessel (g), Ray Brown (b)
02, 03: Los Angeles, December 1952 Same.
04-08: Los Angeles, between November 1 and December 4,1952 Same.
09-12: Los Angeles, November 14,1953
Barney Kessel (g), Bud Shank (fl)(as), Arnold Ross (p),
Harry Babasin (b), Shelly Manne (d)
13-16: Los Angeles. December 19,1953 Same.
17: LosAngeles, July 1,1954
Barney Kessel (g), Bob Cooper (ob), Claude Williamson (p), Monty Budwig (b), Shelly Manne (d)

 
Лог создания рипа

Отчёт EAC об извлечении, выполненном 22. марта 2007, 1:18 для диска:
Barney Kessel / Salute To Charlie Christian

Дисковод: TSSTcorpCD/DVDW SH-S182D   Adapter: 1  ID: 0
Режим чтения: Достоверный (C2: нет, Точный поток: да, Отключение кэша: да)
Комбинированное смещение чтения/записи: 0
Способность читать области Lead-in и Lead-out: Нет

Выходной формат: Внутренние WAV-операции
                     44.100 Гц; 16 бит; стерео

Другие параметры: 
    Заполнение пропущенных сэмплов тишиной: Да
    Удаление блоков с тишиной в начале и конце: Нет
    Встроенный Win32-интерфейс для Win NT/2000


Трек  1
     Имя файла C:\Documents and Settings\Andreas\Мои документы\Моя музыка\transf\Salute To Charlie Christian\01 — Seven Come Eleven.wav

     Пиковый уровень 99.3 %
     Качество трека 100.0 %
     CRC теста 03AF52BA
     CRC копии 03AF52BA
     Копирование… OK

Трек  2
     Имя файла C:\Documents and Settings\Andreas\Мои документы\Моя музыка\transf\Salute To Charlie Christian\02 — Night And Day.wav

     Пиковый уровень 98.5 %
     Качество трека 100.0 %
     CRC теста A623CBB6
     CRC копии A623CBB6
     Копирование… OK

Трек  3
     Имя файла C:\Documents and Settings\Andreas\Мои документы\Моя музыка\transf\Salute To Charlie Christian\03 — Long Ago And Far Away.wav

     Пиковый уровень 99.8 %
     Качество трека 100.0 %
     CRC теста 44C81329
     CRC копии 44C81329
     Копирование… OK

Трек  4
     Имя файла C:\Documents and Settings\Andreas\Мои документы\Моя музыка\transf\Salute To Charlie Christian\04 — Somebody Loves Me.wav

     Пиковый уровень 100.0 %
     Качество трека 100.0 %
     CRC теста 17DC7B24
     CRC копии 17DC7B24
     Копирование… OK

Трек  5
     Имя файла C:\Documents and Settings\Andreas\Мои документы\Моя музыка\transf\Salute To Charlie Christian\05 — Strike Up The Band.wav

     Пиковый уровень 98.5 %
     Качество трека 100.0 %
     CRC теста 24EC69C9
     CRC копии 24EC69C9
     Копирование… OK

Трек  6
     Имя файла C:\Documents and Settings\Andreas\Мои документы\Моя музыка\transf\Salute To Charlie Christian\06 — 'S Wonderful.wav

     Пиковый уровень 100.0 %
     Качество трека 100.0 %
     CRC теста 4382F6BB
     CRC копии 4382F6BB
     Копирование… OK

Трек  7
     Имя файла C:\Documents and Settings\Andreas\Мои документы\Моя музыка\transf\Salute To Charlie Christian\07 — I Got Rhythm.wav

     Пиковый уровень 99.1 %
     Качество трека 100.0 %
     CRC теста B900602F
     CRC копии B900602F
     Копирование… OK

Трек  8
     Имя файла C:\Documents and Settings\Andreas\Мои документы\Моя музыка\transf\Salute To Charlie Christian\08 — Love Walked In.wav

     Пиковый уровень 99.6 %
     Качество трека 100.0 %
     CRC теста 6E406E26
     CRC копии 6E406E26
     Копирование… OK

Трек  9
     Имя файла C:\Documents and Settings\Andreas\Мои документы\Моя музыка\transf\Salute To Charlie Christian\09 — Tenderly.wav

     Пиковый уровень 99.0 %
     Качество трека 100.0 %
     CRC теста 42E812C3
     CRC копии 42E812C3
     Копирование… OK

Трек 10
     Имя файла C:\Documents and Settings\Andreas\Мои документы\Моя музыка\transf\Salute To Charlie Christian\10 — Bernardo.wav

     Пиковый уровень 100.0 %
     Качество трека 100.0 %
     CRC теста 9DF8D84E
     CRC копии 9DF8D84E
     Копирование… OK

Трек 11
     Имя файла C:\Documents and Settings\Andreas\Мои документы\Моя музыка\transf\Salute To Charlie Christian\11 — Vicky's Dream.wav

     Пиковый уровень 99.8 %
     Качество трека 100.0 %
     CRC теста 7E8C95C7
     CRC копии 7E8C95C7
     Копирование… OK

Трек 12
     Имя файла C:\Documents and Settings\Andreas\Мои документы\Моя музыка\transf\Salute To Charlie Christian\12 — Just Squeeze Me.wav

     Пиковый уровень 99.3 %
     Качество трека 99.9 %
     CRC теста 956507A4
     CRC копии 956507A4
     Копирование… OK

Трек 13
     Имя файла C:\Documents and Settings\Andreas\Мои документы\Моя музыка\transf\Salute To Charlie Christian\13 — What Is There To Say .wav

     Пиковый уровень 100.0 %
     Качество трека 100.0 %
     CRC теста 2C22E4B3
     CRC копии 2C22E4B3
     Копирование… OK

Трек 14
     Имя файла C:\Documents and Settings\Andreas\Мои документы\Моя музыка\transf\Salute To Charlie Christian\14 — Salute To Charlie Christian.wav

     Пиковый уровень 98.2 %
     Качество трека 100.0 %
     CRC теста 03831E79
     CRC копии 03831E79
     Копирование… OK

Трек 15
     Имя файла C:\Documents and Settings\Andreas\Мои документы\Моя музыка\transf\Salute To Charlie Christian\15 — I Let A Song Go Out Of My Heart.wav

     Пиковый уровень 98.2 %
     Качество трека 100.0 %
     CRC теста 6782E890
     CRC копии 6782E890
     Копирование… OK

Трек 16
     Имя файла C:\Documents and Settings\Andreas\Мои документы\Моя музыка\transf\Salute To Charlie Christian\16 — Lullaby Of Birdland.wav

     Пиковый уровень 98.1 %
     Качество трека 100.0 %
     CRC теста 539F3ABF
     CRC копии 539F3ABF
     Копирование… OK

Трек 17
     Имя файла C:\Documents and Settings\Andreas\Мои документы\Моя музыка\transf\Salute To Charlie Christian\17 — Barney's Blues.wav

     Пиковый уровень 99.1 %
     Качество трека 99.9 %
     CRC теста DFAF474D
     CRC копии DFAF474D
     Копирование… OK

Ошибок не произошло


Конец отчёта
 

 

Страна-производитель диска (релиза): USA
Дата записи диска: 13 сентября 1952 - 01 июля 1954
Место записи: Los Angeles, CA
Дата издания диска: 25 мая 2002
Номер по каталогу: 220304-203
Носитель: CD
Битрейт аудио: lossless
Аудиокодек: FLAC (*.flac)
Тип рипа: tracks
Время звучания: 55:15
Наличие сканов: да
Релизёр (источник): JanV

Треклист:
01. SEVEN COME ELEVEN (GOODMAN) 3:53
02. NIGHT AND DAY (PORTER) 3:40
03. LONG AGO AND FAR AWAY (KERN - GERSHWIN) 3:46
04. SOMEBODY LOVES ME (GERSHWIN - DESYLVA - MACDONALD) 3:22
05. STRIKE UP THE BAND (G. & I. GERSHWIN) 3:15
06. 'S WONDERFUL (G. & I. GERSHWIN) 2:37
07. I GOT RHYTHM (G. & I. GERSHWIN) 3:16
08. LOVE WALKED IN (G. & I. GERSHWIN) 3:09
09. TENDERLY (GROSS) 3:13 10. BERNARDO (KESSEL) 2:34
11. VICKY'S DREAM (KESSEL) 2:51
12. JUST SQUEEZE ME (ELLINGTON) 2:58
13. WHAT IS THERE TO SAY? (HARBURG - DUKE) 3:33
14. SALUTE TO CHARLIE CHRISTIAN (KESSEL) 3:16
15. I LET A SONG GO OUT OF MY HEART (MILLS - ELLINGTON - NEMO - REDMOND) 3:38
16. LULLABY OF BIRDLAND (SHEARING - FOSTER) 3:08
17. BARNEY'S BLUES (KESSEL) 3:00

Скачивание доступно после регистрации!!
Приватный:
Нет (DHT включён)
Размер:
253.04 Мб (265,331,858 байт) » файлов: 24
Участники:
1 раздают, 3 качают (4 участников всего)
Внешние участники:
--- [ Обновить ]
13:55
26
RSS
Нет комментариев. Ваш будет первым!