Поиск

1944-1958 Louis Armstrong, Jack Teagarden - Satchmo Meets Big T (2021) {Vintage} [24-48]

1944-1958 Louis Armstrong, Jack Teagarden - Satchmo Meets Big T (2021) {Vintage} [24-48]
Дата издания диска:
6 мая 2021
Носитель:
WEB
Формат:
PCM
Тип рипа:
tracks
Контейнер:
FLAC (*.flac)
Количество каналов:
2.0
Разрядность/ЧД:
24/48
Битрейт аудио:
lossless
Время звучания:
01:13:08
Наличие сканов:
только обложка

01 - Rockin' Chair 03:07
02 - Please Stop Playing Those Blues 03:16
03 - Jack-Armstrong Blues 03:01
04 - Before Long 02:50
05 - Baby, Won't You Please Come Home? 03:17
06 - Fifty-Fifty Blues 02:58
07 - My Bucket's Got a Hole In It 03:44
08 - Some Day (You'll Be Sorry) 03:14
09 - A Song Was Born 03:19
10 - Back O'town Blues 04:14
11 - Basin Street Blues 04:12
12 - Do You Know What It Means to Miss New Orleans? 04:33
13 - Jeepers Creepers 03:29
14 - Lovely Weather We're Having 03:16
15 - 12Th Street Rag 05:41
16 - That's for Me 05:09
17 - Panama 05:03
18 - Bugle Call Rag 08:45
 

Состав:
  • Baritone Saxophone, Clarinet – Ernie Caceres (tracks: 1, 3, 6, 8)
  • Bass – Al Hall (tracks: 1, 3, 6, 8), Arvell Shaw (tracks: 2, 4, 5, 7, 9, 12, 14 to 18), Bob Haggart (tracks: 10), Mort Herbert (tracks: 13), Oscar Pettiford (tracks: 11)
  • Celesta – Johnny Guarnieri (tracks: 8)
  • Clarinet – Barney Bigard (tracks: 2, 4, 5, 7, 9, 11, 12, 14 to 18), Edmond Hall (tracks: 13)
  • Clarinet, Tenor Saxophone – Peanuts Hucko (tracks: 1, 3, 6, 8, 10)
  • Cornet – Bobby Hackett (tracks: 1, 3, 6, 8)
  • Drums – Cozy Cole (tracks: 1, 3, 5 to 8, 15 to 18), Danny Barcelona (tracks: 13), Sidney Catlett (tracks: 2, 4, 9 to 12, 14)
  • Ensemble – Louis Armstrong And His All-Stars (tracks: 2, 4, 5, 7, 9, 10, 12 to 18)
  • Guitar – Al Casey (tracks: 1, 3, 6, 8, 11)
  • Orchestra – Louis Armstrong And His Orchestra (tracks: 1, 3, 6, 8)
  • Piano – Art Tatum (tracks: 11), Billy Kyle (tracks: 13), Dick Cary (tracks: 2, 4, 9, 10, 14), Earl Hines (tracks: 5, 7, 12, 15 to 18), Johnny Guarnieri (tracks: 1, 3, 6)
  • Tenor Saxophone – Coleman Hawkins (tracks: 11)
  • Trombone – Jack Teagarden
  • Trumpet – Bobby Hackett (tracks: 10), Louis Armstrong
  • Vocals – Jack Teagarden (tracks: 1 to 3, 5 to 7, 9 to 13), Louis Armstrong (tracks: 1 to 4, 6 to 14, 16)
Лог проверки качества
foobar2000 1.4.6 / Dynamic Range Meter 1.1.1
log date: 2021-09-02 07:36:06
--------------------------------------------------------------------------------
Analyzed: Louis Armstrong / Satchmo Meets Big T
--------------------------------------------------------------------------------
DR         Peak         RMS     Duration Track
--------------------------------------------------------------------------------
DR9        0.00 dB   -10.25 dB      3:08 01-Rockin' Chair
DR9        0.00 dB   -10.26 dB      3:17 02-Please Stop Playing Those Blues
DR8        0.00 dB   -10.34 dB      3:02 03-Jack-Armstrong Blues
DR8        0.00 dB   -10.40 dB      2:51 04-Before Long
DR9        0.00 dB   -10.01 dB      3:17 05-Baby, Won't You Please Come Home?
DR9        0.00 dB   -10.69 dB      2:59 06-Fifty-Fifty Blues
DR8        0.00 dB   -10.28 dB      3:44 07-My Bucket's Got a Hole In It
DR9        0.00 dB   -10.50 dB      3:15 08-Some Day (You'll Be Sorry)
DR8        0.00 dB    -9.83 dB      3:20 09-A Song Was Born
DR8        0.00 dB    -9.85 dB      4:15 10-Back O'town Blues
DR9        0.00 dB   -10.43 dB      4:12 11-Basin Street Blues
DR9        0.00 dB   -10.47 dB      4:33 12-Do You Know What It Means to Miss New Orleans?
DR9        0.00 dB    -9.94 dB      3:29 13-Jeepers Creepers
DR9        0.00 dB   -10.69 dB      3:17 14-Lovely Weather We're Having
DR9        0.00 dB   -10.41 dB      5:42 15-12Th Street Rag
DR9        0.00 dB   -10.36 dB      5:09 16-That's for Me
DR8        0.00 dB    -9.77 dB      5:03 17-Panama
DR8        0.00 dB   -10.04 dB      8:45 18-Bugle Call Rag
--------------------------------------------------------------------------------
Number of tracks:  18
Official DR value: DR9
Samplerate:        48000 Hz
Channels:          2
Bits per sample:   24
Bitrate:           1643 kbps
Codec:             FLAC
================================================================================
Приватный:
Нет (DHT включён)
Размер:
822.20 Мб (862,141,785 байт) » файлов: 23
Участники:
0 раздают, 0 качают (0 участников всего)
Внешние участники:
3 раздают, 1 качают (4 участников всего) [ Обновить ]
15:42
521
Нет комментариев. Ваш будет первым!