Поиск

1942-1945 (1996) James P. Johnson - The Original James P. Johnson Piano Solos {Smithsonian Folkways SFWCD 40812}

1942-1945 (1996) James P. Johnson - The Original James P. Johnson Piano Solos {Smithsonian Folkways SFWCD 40812}
Страна-производитель диска (релиза):
USA
Дата записи диска:
1942-1945
Дата издания диска:
24 сентября 1996
Издатель (лейбл):
Номер по каталогу:
SFWCD 40812
Носитель:
CD
Битрейт аудио:
lossless
Аудиокодек:
FLAC (*.flac)
Тип рипа:
tracks+.cue
Время звучания:
01:12:44
Наличие сканов:
  • web
Релизёр (источник):
Torrent4Life

Треклист:

01. Liza 02:52
02. Aunt Hagar's Blues 02:33
03. Sweet Lorraine 02:49
04. Jersey Sweet 02:30
05. Yamerkaw - A Negro Rhapsody 11:59
06. Daintiness Rag 02:06
07. The Dream 03:44
08. The Dream (Alternate) 02:26
09. Blue Moods 04:04
10. Keep Movin' 02:31
11. Woman Blues 03:50
12. Jazzamine Concerto 06:30
13. St. Louis Blues 04:02
14. Jungle Drums 02:34
15. Blue Moods, Sex 04:41
16. Euphonic Sounds 02:43
17. Twilight Rag 02:34
18. Snowy Morning Blues 03:16
19. Snowy Morning Blues (Alternate) 03:00
20. Blues for Jimmy 02:53

Состав:
  • Malcolm Addey Remastering
  • Moses Asch Engineer
  • David Cayer Liner Notes
  • Kevin Doran Compilation Producer
  • James P. Johnson Composer, Piano, Vocals
Exact Audio Copy V0.99 prebeta 4 from 23. January 2008
EAC extraction logfile from 8. August 2008, 21:16
James P. Johnson / The Original James P. Johnson 1942 - 1945 Piano Solos
Used drive : Optiarc DVD RW AD-7200S Adapter: 3 ID: 0
Read mode : Burst
Read offset correction : 48
Overread into Lead-In and Lead-Out : No
Fill up missing offset samples with silence : Yes
Delete leading and trailing silent blocks : No
Null samples used in CRC calculations : Yes
Used interface : Native Win32 interface for Win NT & 2000
Gap handling : Appended to previous track
Used output format : User Defined Encoder
Selected bitrate : 96 kBit/s
Quality : High
Add ID3 tag : Yes
Command line compressor : C:\Program Files (x86)\FLAC\flac.exe
Additional command line options : V -8 -T "artist=%a" -T "title=%t" -T "album=%g" -T "date=%y" -T "tracknumber=%n" -T "genre=%m" %s
TOC of the extracted CD Track | Start | Length | Start sector | End sector --------------------------------------------------------- 1 | 0:00.00 | 2:52.10 | 0 | 12909 2 | 2:52.10 | 2:33.05 | 12910 | 24389 3 | 5:25.15 | 2:49.62 | 24390 | 37126 4 | 8:15.02 | 2:30.63 | 37127 | 48439 5 | 10:45.65 | 11:59.45 | 48440 | 102409 6 | 22:45.35 | 2:06.07 | 102410 | 111866 7 | 24:51.42 | 3:44.05 | 111867 | 128671 8 | 28:35.47 | 2:26.13 | 128672 | 139634 9 | 31:01.60 | 4:04.05 | 139635 | 157939 10 | 35:05.65 | 2:31.02 | 157940 | 169266 11 | 37:36.67 | 3:50.00 | 169267 | 186516 12 | 41:26.67 | 6:30.13 | 186517 | 215779 13 | 47:57.05 | 4:02.10 | 215780 | 233939 14 | 51:59.15 | 2:34.57 | 233940 | 245546 15 | 54:33.72 | 4:40.73 | 245547 | 266619 16 | 59:14.70 | 2:43.60 | 266620 | 278904 17 | 61:58.55 | 2:34.67 | 278905 | 290521 18 | 64:33.47 | 3:16.65 | 290522 | 305286 19 | 67:50.37 | 3:00.33 | 305287 | 318819 20 | 70:50.70 | 2:53.32 | 318820 | 331826
Track 1 Filename H:\Upload Round 3\James P. Johnson\The Original James P. Johnson 1942 - 1945 Piano Solos\01 - Liza .wav Pre-gap length 0:00:02.00 Peak level 90.5 % Test CRC 43F79727 Copy CRC 43F79727 Cannot be verified as accurate (confidence 1) [8EF258BD], AccurateRip returned [D2D96FB7] Copy OK
Track 2 Filename H:\Upload Round 3\James P. Johnson\The Original James P. Johnson 1942 - 1945 Piano Solos\02 - Aunt Hagar's Blues .wav Pre-gap length 0:00:03.13 Peak level 89.1 % Test CRC C9D072E9 Copy CRC C9D072E9 Cannot be verified as accurate (confidence 1) [6AE4E883], AccurateRip returned [6491FD40] Copy OK
Track 3 Filename H:\Upload Round 3\James P. Johnson\The Original James P. Johnson 1942 - 1945 Piano Solos\03 - Sweet Lorraine .wav Pre-gap length 0:00:02.73 Peak level 81.2 % Test CRC 406D3ED3 Copy CRC 406D3ED3 Cannot be verified as accurate (confidence 1) [E8FCE529], AccurateRip returned [DC8C4C77] Copy OK
Track 4 Filename H:\Upload Round 3\James P. Johnson\The Original James P. Johnson 1942 - 1945 Piano Solos\04 - Jersey Sweet .wav Pre-gap length 0:00:01.60 Peak level 86.7 % Test CRC AF880630 Copy CRC AF880630 Cannot be verified as accurate (confidence 1) [5CEAF03A], AccurateRip returned [C85875EB] Copy OK
Track 5 Filename H:\Upload Round 3\James P. Johnson\The Original James P. Johnson 1942 - 1945 Piano Solos\05 - Yamekraw - A Negro Rhapsody .wav Pre-gap length 0:00:02.84 Peak level 96.5 % Test CRC 2F2A67CA Copy CRC 2F2A67CA Cannot be verified as accurate (confidence 1) [3DF1E327], AccurateRip returned [58BB5D94] Copy OK
Track 6 Filename H:\Upload Round 3\James P. Johnson\The Original James P. Johnson 1942 - 1945 Piano Solos\06 - Daintiness Rag .wav Pre-gap length 0:00:02.33 Peak level 92.0 % Test CRC 31D51C0D Copy CRC 31D51C0D Cannot be verified as accurate (confidence 1) [9ADE1CCA], AccurateRip returned [E4B7F992] Copy OK
Track 7 Filename H:\Upload Round 3\James P. Johnson\The Original James P. Johnson 1942 - 1945 Piano Solos\07 - The Dream .wav Pre-gap length 0:00:02.26 Peak level 90.2 % Test CRC A74BE014 Copy CRC A74BE014 Cannot be verified as accurate (confidence 1) [739D6BF6], AccurateRip returned [FC2C33FD] Copy OK
Track 8 Filename H:\Upload Round 3\James P. Johnson\The Original James P. Johnson 1942 - 1945 Piano Solos\08 - The Dream (alternate) .wav Pre-gap length 0:00:02.26 Peak level 87.2 % Test CRC 792C1386 Copy CRC 792C1386 Cannot be verified as accurate (confidence 1) [186B1361], AccurateRip returned [F83B8FC3] Copy OK
Track 9 Filename H:\Upload Round 3\James P. Johnson\The Original James P. Johnson 1942 - 1945 Piano Solos\09 - Blue Moods .wav Pre-gap length 0:00:02.10 Peak level 82.1 % Test CRC 5B62CF39 Copy CRC 5B62CF39 Cannot be verified as accurate (confidence 1) [EEF2E02A], AccurateRip returned [5365165C] Copy OK
Track 10 Filename H:\Upload Round 3\James P. Johnson\The Original James P. Johnson 1942 - 1945 Piano Solos\10 - Keep Movin' .wav Pre-gap length 0:00:02.90 Peak level 83.4 % Test CRC CA9BFB6C Copy CRC CA9BFB6C Cannot be verified as accurate (confidence 1) [0C6B2A10], AccurateRip returned [CE857CA2] Copy OK
Track 11 Filename H:\Upload Round 3\James P. Johnson\The Original James P. Johnson 1942 - 1945 Piano Solos\11 - Woman Blues .wav Pre-gap length 0:00:02.13 Peak level 98.5 % Test CRC E9A79B8B Copy CRC E9A79B8B Cannot be verified as accurate (confidence 1) [73019A2D], AccurateRip returned [62EB6810] Copy OK
Track 12 Filename H:\Upload Round 3\James P. Johnson\The Original James P. Johnson 1942 - 1945 Piano Solos\12 - Jazzamine Concerto .wav Pre-gap length 0:00:02.22 Peak level 99.3 % Test CRC 07F97047 Copy CRC 07F97047 Cannot be verified as accurate (confidence 1) [39999AA6], AccurateRip returned [DF527541] Copy OK
Track 13 Filename H:\Upload Round 3\James P. Johnson\The Original James P. Johnson 1942 - 1945 Piano Solos\13 - St. Louis Blues .wav Pre-gap length 0:00:02.26 Peak level 91.4 % Test CRC F5B00287 Copy CRC F5B00287 Cannot be verified as accurate (confidence 1) [737B6671], AccurateRip returned [ABE48CA1] Copy OK
Track 14 Filename H:\Upload Round 3\James P. Johnson\The Original James P. Johnson 1942 - 1945 Piano Solos\14 - Jungle Drums .wav Pre-gap length 0:00:02.37 Peak level 97.9 % Test CRC DDFCC7A0 Copy CRC DDFCC7A0 Cannot be verified as accurate (confidence 1) [6E9EF7D9], AccurateRip returned [8E3FF329] Copy OK
Track 15 Filename H:\Upload Round 3\James P. Johnson\The Original James P. Johnson 1942 - 1945 Piano Solos\15 - Blue Moods, Sex .wav Pre-gap length 0:00:02.06 Peak level 90.0 % Test CRC 193C7258 Copy CRC 193C7258 Cannot be verified as accurate (confidence 1) [0FE478CA], AccurateRip returned [A483E03D] Copy OK
Track 16 Filename H:\Upload Round 3\James P. Johnson\The Original James P. Johnson 1942 - 1945 Piano Solos\16 - Euphonic Sounds .wav Pre-gap length 0:00:02.30 Peak level 83.2 % Test CRC 994B3D89 Copy CRC 994B3D89 Cannot be verified as accurate (confidence 1) [0D6BFD48], AccurateRip returned [DCAFE940] Copy OK
Track 17 Filename H:\Upload Round 3\James P. Johnson\The Original James P. Johnson 1942 - 1945 Piano Solos\17 - Twilight Rag .wav Pre-gap length 0:00:02.46 Peak level 98.4 % Test CRC 369B0C81 Copy CRC 369B0C81 Cannot be verified as accurate (confidence 1) [6EAC9F98], AccurateRip returned [13BA8E95] Copy OK
Track 18 Filename H:\Upload Round 3\James P. Johnson\The Original James P. Johnson 1942 - 1945 Piano Solos\18 - Snowy Morning Blues .wav Pre-gap length 0:00:02.60 Timing problem 0:01:54 Peak level 91.8 % Test CRC 6D88FA52 Copy CRC 6D88FA52 Cannot be verified as accurate (confidence 1) [CC29AD29], AccurateRip returned [C268AD9D] Copy finished
Track 19 Filename H:\Upload Round 3\James P. Johnson\The Original James P. Johnson 1942 - 1945 Piano Solos\19 - Snowy Morning Blues (alternate) .wav Pre-gap length 0:00:02.40 Peak level 100.0 % Test CRC 144AC51A Copy CRC 144AC51A Cannot be verified as accurate (confidence 1) [4DCE7FBA], AccurateRip returned [A88E07E4] Copy OK
Track 20 Filename H:\Upload Round 3\James P. Johnson\The Original James P. Johnson 1942 - 1945 Piano Solos\20 - Blues For Jimmy .wav Pre-gap length 0:00:02.13 Peak level 84.0 % Test CRC DCE6DAB5 Copy CRC DCE6DAB5 Cannot be verified as accurate (confidence 1) [13DCB6AD], AccurateRip returned [15187359] Copy OK
No tracks could be verified as accurate
You may have a different pressing from the one(s) in the database
No errors occurred
End of status report
REM GENRE Jazz
REM DATE 1996
REM DISCID 37114814
REM COMMENT "ExactAudioCopy v0.99pb4"
PERFORMER "James P. Johnson"
TITLE "The Original James P. Johnson 1942 - 1945 Piano Solos"
FILE "James P. Johnson\The Original James P. Johnson 1942 - 1945 Piano Solos\01 - Liza .wav" WAVE TRACK 01 AUDIO TITLE "Liza" PERFORMER "James P. Johnson" INDEX 01 00:00:00 TRACK 02 AUDIO TITLE "Aunt Hagar's Blues" PERFORMER "James P. Johnson" INDEX 00 02:49:00
FILE "James P. Johnson\The Original James P. Johnson 1942 - 1945 Piano Solos\02 - Aunt Hagar's Blues .wav" WAVE INDEX 01 00:00:00 TRACK 03 AUDIO TITLE "Sweet Lorraine" PERFORMER "James P. Johnson" INDEX 00 02:30:25
FILE "James P. Johnson\The Original James P. Johnson 1942 - 1945 Piano Solos\03 - Sweet Lorraine .wav" WAVE INDEX 01 00:00:00 TRACK 04 AUDIO TITLE "Jersey Sweet" PERFORMER "James P. Johnson" INDEX 00 02:48:17
FILE "James P. Johnson\The Original James P. Johnson 1942 - 1945 Piano Solos\04 - Jersey Sweet .wav" WAVE INDEX 01 00:00:00 TRACK 05 AUDIO TITLE "Yamekraw - A Negro Rhapsody" PERFORMER "James P. Johnson" INDEX 00 02:28:00
FILE "James P. Johnson\The Original James P. Johnson 1942 - 1945 Piano Solos\05 - Yamekraw - A Negro Rhapsody .wav" WAVE INDEX 01 00:00:00 TRACK 06 AUDIO TITLE "Daintiness Rag" PERFORMER "James P. Johnson" INDEX 00 11:57:20
FILE "James P. Johnson\The Original James P. Johnson 1942 - 1945 Piano Solos\06 - Daintiness Rag .wav" WAVE INDEX 01 00:00:00 TRACK 07 AUDIO TITLE "The Dream" PERFORMER "James P. Johnson" INDEX 00 02:03:62
FILE "James P. Johnson\The Original James P. Johnson 1942 - 1945 Piano Solos\07 - The Dream .wav" WAVE INDEX 01 00:00:00 TRACK 08 AUDIO TITLE "The Dream (alternate)" PERFORMER "James P. Johnson" INDEX 00 03:41:60
FILE "James P. Johnson\The Original James P. Johnson 1942 - 1945 Piano Solos\08 - The Dream (alternate) .wav" WAVE INDEX 01 00:00:00 TRACK 09 AUDIO TITLE "Blue Moods" PERFORMER "James P. Johnson" INDEX 00 02:24:05
FILE "James P. Johnson\The Original James P. Johnson 1942 - 1945 Piano Solos\09 - Blue Moods .wav" WAVE INDEX 01 00:00:00 TRACK 10 AUDIO TITLE "Keep Movin'" PERFORMER "James P. Johnson" INDEX 00 04:01:12
FILE "James P. Johnson\The Original James P. Johnson 1942 - 1945 Piano Solos\10 - Keep Movin' .wav" WAVE INDEX 01 00:00:00 TRACK 11 AUDIO TITLE "Woman Blues" PERFORMER "James P. Johnson" INDEX 00 02:28:67
FILE "James P. Johnson\The Original James P. Johnson 1942 - 1945 Piano Solos\11 - Woman Blues .wav" WAVE INDEX 01 00:00:00 TRACK 12 AUDIO TITLE "Jazzamine Concerto" PERFORMER "James P. Johnson" INDEX 00 03:47:58
FILE "James P. Johnson\The Original James P. Johnson 1942 - 1945 Piano Solos\12 - Jazzamine Concerto .wav" WAVE INDEX 01 00:00:00 TRACK 13 AUDIO TITLE "St. Louis Blues" PERFORMER "James P. Johnson" INDEX 00 06:27:68
FILE "James P. Johnson\The Original James P. Johnson 1942 - 1945 Piano Solos\13 - St. Louis Blues .wav" WAVE INDEX 01 00:00:00 TRACK 14 AUDIO TITLE "Jungle Drums" PERFORMER "James P. Johnson" INDEX 00 03:59:57
FILE "James P. Johnson\The Original James P. Johnson 1942 - 1945 Piano Solos\14 - Jungle Drums .wav" WAVE INDEX 01 00:00:00 TRACK 15 AUDIO TITLE "Blue Moods, Sex" PERFORMER "James P. Johnson" INDEX 00 02:32:52
FILE "James P. Johnson\The Original James P. Johnson 1942 - 1945 Piano Solos\15 - Blue Moods, Sex .wav" WAVE INDEX 01 00:00:00 TRACK 16 AUDIO TITLE "Euphonic Sounds" PERFORMER "James P. Johnson" INDEX 00 04:38:50
FILE "James P. Johnson\The Original James P. Johnson 1942 - 1945 Piano Solos\16 - Euphonic Sounds .wav" WAVE INDEX 01 00:00:00 TRACK 17 AUDIO TITLE "Twilight Rag" PERFORMER "James P. Johnson" INDEX 00 02:41:25
FILE "James P. Johnson\The Original James P. Johnson 1942 - 1945 Piano Solos\17 - Twilight Rag .wav" WAVE INDEX 01 00:00:00 TRACK 18 AUDIO TITLE "Snowy Morning Blues" PERFORMER "James P. Johnson" INDEX 00 02:32:22
FILE "James P. Johnson\The Original James P. Johnson 1942 - 1945 Piano Solos\18 - Snowy Morning Blues .wav" WAVE INDEX 01 00:00:00 TRACK 19 AUDIO TITLE "Snowy Morning Blues (alternate)" PERFORMER "James P. Johnson" INDEX 00 03:14:35
FILE "James P. Johnson\The Original James P. Johnson 1942 - 1945 Piano Solos\19 - Snowy Morning Blues (alternate) .wav" WAVE INDEX 01 00:00:00 TRACK 20 AUDIO TITLE "Blues For Jimmy" PERFORMER "James P. Johnson" INDEX 00 02:58:23
FILE "James P. Johnson\The Original James P. Johnson 1942 - 1945 Piano Solos\20 - Blues For Jimmy .wav" WAVE INDEX 01 00:00:00
Приватный Нет (DHT включён)
Хэш 76AC5CE23A59534F86D5477DBBB904E06124190B
Размер 237.69 Мб (249,231,526 байт) » файлов: 25 [ Список файлов ]
Участники 1 раздают, 0 качают (1 участников всего)
Внешние участники Нет внешних трекеров
Скорость Сейчас никто не качает
15:11
87
RSS
Нет комментариев. Ваш будет первым!