2003 John Surman - Free And Equal {ECM 1802}

2003 John Surman - Free And Equal {ECM 1802}
Страна-производитель диска (релиза):
Germany
Дата записи диска:
июнь 2001
Дата издания диска:
25 февраля 2003
Номер по каталогу:
1802
Носитель:
CD
Битрейт аудио:
lossless
Аудиокодек:
FLAC (*.flac)
Тип рипа:
tracks+.cue
Время звучания:
67:09
Наличие сканов:
  • да
Релизёр (источник):
ordo
Треклист:

1. Preamble 4:11
2. Groundworks 9:33
3. Sea Change 10:14
4. Back and Forth 11:51
5. Fire 6:47
6. Debased Line 5:02
7. In the Shadow 6:56
8. Free and Equal 8:47
9. Epilogue 3:42

Состав:
  • Paul Archibald    Trumpet
  • John Barclay    Trumpet
  • Richard Bissill    Horn
  • Andrew Crowley    Trumpet
  • Jack DeJohnette    Drums, Piano
  • Richard Edwards    Trombone
  • Manfred Eicher    Executive Producer, Mixing
  • Dan Jenkins    Trombone
  • Steve Lake    Liner Notes
  • London Brass    Ensemble
  • Steve Lowe    Engineer
  • Steven Lowe    Engineer
  • Ann McAneney    Flugelhorn, Trumpet
  • David Purser    Euphonium, Trombone
  • Owen Slade    Tuba
  • David Stewart    Trombone (Bass)
  • Ben Surman    Engineer
  • John Surman    Clarinet (Bass), Composer, Liner Notes, Mixing, Producer, Sax (Baritone), Sax (Soprano)

The work, originally entitled "That's Right", was commissioned for the Norfolk & Norwich Festival 2000 by BBC Radio 3. It received its first performance in Norwich Cathedral on October 6,2000.

Thanks to Steve Shepherd and Kathy Willgress at BBC Radio 3, Nick Clarke at Norfolk & Norwich Festival, John Cumming and all at Serious Productions, David Purser of London Brass

Recorded live, June 2001 at Queen Elizabeth Hall, London. Recording engineers: Steve Lowe, Ben Surman.
Mixed January 2002 at Rainbow Studio, Oslo by Jan Erik Kongshaug, John Surman and Manfred Eicher.

Exact Audio Copy V0.99 prebeta 5 from 4. May 2009
EAC extraction logfile from 6. September 2010, 8:58
John Surman / Free And Equal
Used drive : HL-DT-STDVDRAM GH22NS40 Adapter: 2 ID: 0
Read mode : Secure
Utilize accurate stream : Yes
Defeat audio cache : Yes
Make use of C2 pointers : No
Read offset correction : 667
Overread into Lead-In and Lead-Out : No
Fill up missing offset samples with silence : Yes
Delete leading and trailing silent blocks : No
Null samples used in CRC calculations : Yes
Used interface : Installed external ASPI interface
Gap handling : Appended to previous track
Used output format : User Defined Encoder
Selected bitrate : 768 kBit/s
Quality : High
Add ID3 tag : No
Command line compressor : C:\Program Files (x86)\Exact Audio Copy\FLAC\FLAC.EXE
Additional command line options : -8 -V -T "ARTIST=%a" -T "TITLE=%t" -T "ALBUM=%g" -T "DATE=%y" -T "TRACKNUMBER=%n" -T "GENRE=%m" -T "COMMENT=EAC FLAC -8" %s
TOC of the extracted CD Track | Start | Length | Start sector | End sector --------------------------------------------------------- 1 | 0:00.00 | 4:11.57 | 0 | 18881 2 | 4:11.57 | 9:33.15 | 18882 | 61871 3 | 13:44.72 | 10:14.40 | 61872 | 107961 4 | 23:59.37 | 11:51.55 | 107962 | 161341 5 | 35:51.17 | 6:47.08 | 161342 | 191874 6 | 42:38.25 | 5:02.70 | 191875 | 214594 7 | 47:41.20 | 6:56.65 | 214595 | 245859 8 | 54:38.10 | 8:47.45 | 245860 | 285429 9 | 63:25.55 | 3:42.15 | 285430 | 302094
Track 1 Filename I:\Jazz Music\RIP\01 - Preamble.wav Pre-gap length 0:00:02.00 Peak level 45.4 % Track quality 100.0 % Test CRC EF0E15FF Copy CRC EF0E15FF Accurately ripped (confidence 9) [458F70FA] Copy OK
Track 2 Filename I:\Jazz Music\RIP\02 - Groundwork.wav Peak level 74.2 % Track quality 100.0 % Test CRC EB0D0C69 Copy CRC EB0D0C69 Accurately ripped (confidence 9) [98C44B58] Copy OK
Track 3 Filename I:\Jazz Music\RIP\03 - Sea Change.wav Peak level 99.3 % Track quality 100.0 % Test CRC 8E82DABD Copy CRC 8E82DABD Accurately ripped (confidence 9) [96F69522] Copy OK
Track 4 Filename I:\Jazz Music\RIP\04 - Back And Forth.wav Peak level 99.3 % Track quality 100.0 % Test CRC ED6C0569 Copy CRC ED6C0569 Accurately ripped (confidence 9) [41CD8B88] Copy OK
Track 5 Filename I:\Jazz Music\RIP\05 - Fire.wav Peak level 99.3 % Track quality 99.9 % Test CRC B22331C0 Copy CRC B22331C0 Accurately ripped (confidence 9) [0C8B984B] Copy OK
Track 6 Filename I:\Jazz Music\RIP\06 - Debased Line.wav Peak level 99.0 % Track quality 100.0 % Test CRC BD70389B Copy CRC BD70389B Accurately ripped (confidence 9) [AEC23D4D] Copy OK
Track 7 Filename I:\Jazz Music\RIP\07 - In The Shadow.wav Peak level 99.2 % Track quality 100.0 % Test CRC 9CB751F3 Copy CRC 9CB751F3 Accurately ripped (confidence 9) [E1A29567] Copy OK
Track 8 Filename I:\Jazz Music\RIP\08 - Free and equal.wav Peak level 99.4 % Track quality 100.0 % Test CRC 3060F892 Copy CRC 3060F892 Accurately ripped (confidence 9) [7FCF3592] Copy OK
Track 9 Filename I:\Jazz Music\RIP\09 - Epilogue.wav Peak level 99.3 % Track quality 99.9 % Test CRC 94261549 Copy CRC 94261549 Accurately ripped (confidence 9) [10F90768] Copy OK
All tracks accurately ripped
No errors occurred
End of status report
REM GENRE Jazz
REM DATE 2003
REM DISCID 700FBB09
REM COMMENT "ExactAudioCopy v0.99pb5"
PERFORMER "John Surman"
TITLE "Free And Equal"
FILE "01 - Preamble.wav" WAVE TRACK 01 AUDIO TITLE "Preamble" PERFORMER "John Surman" INDEX 01 00:00:00
FILE "02 - Groundwork.wav" WAVE TRACK 02 AUDIO TITLE "Groundwork" PERFORMER "John Surman" INDEX 01 00:00:00
FILE "03 - Sea Change.wav" WAVE TRACK 03 AUDIO TITLE "Sea Change" PERFORMER "John Surman" INDEX 01 00:00:00
FILE "04 - Back And Forth.wav" WAVE TRACK 04 AUDIO TITLE "Back And Forth" PERFORMER "John Surman" INDEX 01 00:00:00
FILE "05 - Fire.wav" WAVE TRACK 05 AUDIO TITLE "Fire" PERFORMER "John Surman" INDEX 01 00:00:00
FILE "06 - Debased Line.wav" WAVE TRACK 06 AUDIO TITLE "Debased Line" PERFORMER "John Surman" INDEX 01 00:00:00
FILE "07 - In The Shadow.wav" WAVE TRACK 07 AUDIO TITLE "In The Shadow" PERFORMER "John Surman" INDEX 01 00:00:00
FILE "08 - Free and equal.wav" WAVE TRACK 08 AUDIO TITLE "Free and equal" PERFORMER "John Surman" INDEX 01 00:00:00
FILE "09 - Epilogue.wav" WAVE TRACK 09 AUDIO TITLE "Epilogue" PERFORMER "John Surman" INDEX 01 00:00:00
Приватный Нет (DHT включён)
Хэш 2607899A724FC2B280A0BFAAF800EACA6803B2F3
Размер 340.29 Мб (356,824,207 байт) » файлов: 28 [ Список файлов ]
Участники 0 раздают, 0 качают (0 участников всего)
Внешние участники 5 раздают, 1 качают (6 участников всего)
Скорость Сейчас никто не качает
15:23
47
RSS
Нет комментариев. Ваш будет первым!