Поиск

2003 Greg Osby - St. Louis Shoes {Blue Note 7243 5 81699 2 8}

2003 Greg Osby - St. Louis Shoes {Blue Note 7243 5 81699 2 8}
Страна-производитель диска (релиза):
USA
Дата записи диска:
22-23 января 2003
Дата издания диска:
10 июня 2003
Номер по каталогу:
07243581699 2 8
Носитель:
CD
Битрейт аудио:
lossless
Аудиокодек:
FLAC (*.flac)
Тип рипа:
image+.cue
Время звучания:
52:24
Наличие сканов:
  • да
Релизёр (источник):
Bahobaho
Треклист:

01. East St. Louis Toodle-Oo 05:59
02. Shaw Nuff 06:00
03. Light Blue 06:50
04. Whirlwind Soldier 05:33
05. Summertime 05:03
06. Milton on Ebony 05:55
07. The Single Petal of a Rose 06:37
08. Bernie's Tune 02:29
09. St. Louis Blues 07:56

Systems Two Studios, Brooklyn, NY

Состав:
  • Rodney Green Drums
  • Robert Hurst Bass
  • Harold O'Neal Piano
  • Greg Osby Arranger, Producer, Sax (Alto)
  • Ted Panken Liner Notes
  • Nicholas Payton Flugelhorn, Trumpet
Лог создания рипа
<spoiler title="Лог создания рипа"><pre>
Exact Audio Copy V0.99 prebeta 5 from 4. May 2009
Отчёт EAC об извлечении, выполненном 21. декабря 2010, 9:44
Greg Osby / St. Louis Shoes
Дисковод: Optiarc DVD RW AD-7191S Adapter: 0 ID: 1
Режим чтения : Достоверность
Использование точного потока : Да
Отключение кэша аудио : Да
Использование указателей C2 : Нет
Коррекция смещения при чтении : 6
Способность читать области Lead-in и Lead-out : Нет
Заполнение пропущенных сэмплов тишиной : Да
Удаление блоков с тишиной в начале и конце : Нет
При вычислениях CRC использовались нулевые сэмплы : Да
Интерфейс : Встроенный Win32-интерфейс для Win NT/2000
Выходной формат : Пользовательский кодировщик
Выбранный битрейт : 768 kBit/s
Качество : Высокий
Добавление ID3-тэга : Нет
Утилита сжатия : C:\Program Files\Exact Audio Copy\FLAC\FLAC.EXE
Дополнительные параметры : -6 -V -T "ARTIST=%a" -T "TITLE=%t" -T "ALBUM=%g" -T "DATE=%y" -T "TRACKNUMBER=%n" -T "GENRE=%m" -T "COMMENT=%e" %s -o %d
TOC извлечённого CD
Трек | Старт | Длительность | Начальный сектор | Конечный сектор
---------------------------------------------------------------------
1 | 0:00.00 | 5:59.70 | 0 | 26994
2 | 5:59.70 | 6:00.10 | 26995 | 54004
3 | 12:00.05 | 6:50.30 | 54005 | 84784
4 | 18:50.35 | 5:33.05 | 84785 | 109764
5 | 24:23.40 | 5:03.27 | 109765 | 132516
6 | 29:26.67 | 5:55.00 | 132517 | 159141
7 | 35:21.67 | 6:37.10 | 159142 | 188926
8 | 41:59.02 | 2:29.28 | 188927 | 200129
9 | 44:28.30 | 7:56.37 | 200130 | 235866
Характеристики диапазона извлечения и сообщения об ошибках
Выбранный диапазон
Имя файла E:\MUSIC\GREG OSBY\Greg Osby - 2003 - St. Louis Shoes\Greg Osby - St. Louis Shoes.wav
Пиковый уровень 99.8 %
Качество диапазона 100.0 %
CRC копии BB8BADA3
Копирование... OK
Ошибок не произошло
AccurateRip: сводка
Трек 1 точное извлечение (доверие 2) [21074C79]
Трек 2 точное извлечение (доверие 2) [87E7080E]
Трек 3 точное извлечение (доверие 2) [6FC5EE36]
Трек 4 точное извлечение (доверие 2) [3A4F937B]
Трек 5 точное извлечение (доверие 2) [A4CB5DE9]
Трек 6 точное извлечение (доверие 2) [E21D76B8]
Трек 7 точное извлечение (доверие 2) [43F65316]
Трек 8 точное извлечение (доверие 2) [1F8EFC3F]
Трек 9 точное извлечение (доверие 2) [82FD4460]
Все треки извлечены точно
Конец отчёта
</pre></spoiler>
Приватный:
Нет (DHT включён)
Размер:
341.46 Мб (358,046,868 байт) » файлов: 13
Участники:
0 раздают, 0 качают (0 участников всего)
Внешние участники:
1 раздают, 0 качают (1 участников всего) [ Обновить ]
Скорость:
Торрент не зарегистрирован на трекере
06:07
61
RSS
Нет комментариев. Ваш будет первым!