Поиск

1960 Max Roach Quintet - at the Alhambra Theater, Paris (part 2) [WEB-DL 1080p]

1960 Max Roach Quintet - at the Alhambra Theater, Paris (part 2) [WEB-DL 1080p]
Главы (разбивка по трекам):
нет
Качество:
WEB-DL
Контейнер:
MP4
Состав:
  • Stanley Turrentine
  • Bobby Bowsel
  • Tommy Turrentine
  • Max Roach
  • Julian Priester
Видео:
AVC (h264) / 1920*1080 / progressive / 16*9 / 1 978 kbps / 25 fps
Аудио#1:
AAC LC / 256 kbps / 44.1 kHz / 2 ch stereo
Описание:

Соло на барабанах Макса Роуча — отличное начало второй части этого исключительного шоу. В дальнейшем он подарит нам еще несколько соло, отличающихся невероятной музыкальностью, большим разнообразием тембров и светящейся ясностью. Но он не только великий инструменталист, родоначальник полиритмической игры на барабанах в джазе, он еще и лидер людей, умеющий окружить себя молодыми музыкантами и первоклассный аккомпаниатор.

Увлекательно наблюдать за тем, как барабан и контрабас сопровождают солистов. В своих выступлениях солисты знают, как разделить дух сообщества, предложенный лидером. Все музыканты — исключительные техники, хотя они никогда не обладали той аурой, которую приобрели их предшественники Клиффорд Браун и Сонни Роллинз. Однако стоит отметить плавную фразировку и мелодическое чувство тромбониста Джулиана Пристера и энергичные импровизации саксофониста Стэнли Туррентайна, который в течение двух лет с Максом Роучем переживал лучшие творческие годы в своей карьере, прежде чем перейти к менее сложным звуковым ландшафтам.

Этот концерт подтверждает одно: если и есть артист, вызывающий уважение, то это Макс Роуч. Его природная элегантность, политическая активность и художественная осведомленность достойны похвалы на все времена.

Филипп Лесаж

Дополнительная информация:

This album is available on our DC++ hub:
Этот альбом доступен на нашем DC++ хабе:
dchub://hub.pro-jazz.com:7777

Отчёт DVDInfo/MediaInfo/BDInfo
Общее
Полное имя : \\6\M\Max Roach\1960 Max Roach Quintet - at the Alhambra Theater, Paris [WEB-DL 1080p]\1960 Max Roach Quintet - at the Alhambra Theater, Paris (part 2) [WEB-DL 1080p].mp4
Формат : MPEG-4
Профиль формата : Base Media
Идентификатор кодека : isom (isom/iso2/avc1/mp41)
Размер файла : 539 Мбайт
Продолжительность : 33 м. 36 с.
Общий поток : 2 240 Кбит/сек
Частота кадров : 25,000 кадров/сек
HDVideo : Yes

Видео
Идентификатор : 1
Формат : AVC
Формат/Информация : Advanced Video Codec
Профиль формата : High@L4.1
Настройки формата : CABAC / 3 Ref Frames
Параметр CABAC формата : Да
Параметр RefFrames формата : 3 кадра
Параметр GOP формата : M=4, N=50
Идентификатор кодека : avc1
Идентификатор кодека/Информация : Advanced Video Coding
Продолжительность : 33 м. 36 с.
Битрейт : 2 000 Кбит/сек
Максимальный битрейт : 1 978 Кбит/сек
Ширина : 1 920 пикселей
Высота : 1 080 пикселей
Соотношение сторон : 16:9
Active width : 1 428 пикселей
Active height : 1 064 пикселя
Active display aspect ratio : 4:3
Режим частоты кадров : Постоянный
Частота кадров : 25,000 кадров/сек
Цветовое пространство : YUV
Субдискретизация насыщенности : 4:2:0
Битовая глубина : 8 бит
Тип развёртки : Прогрессивная
Бит/(Пиксели*Кадры) : 0.039
Размер потока : 476 Мбайт (88%)
Библиотека кодирования : x264 core 152 r2854 e9a5903
Настройки программы : cabac=1 / ref=4 / deblock=1:0:0 / analyse=0x3:0x113 / me=hex / subme=7 / psy=1 / psy_rd=1.00:0.00 / mixed_ref=1 / me_range=16 / chroma_me=1 / trellis=1 / 8x8dct=1 / cqm=0 / deadzone=21,11 / fast_pskip=1 / chroma_qp_offset=-2 / threads=6 / lookahead_threads=1 / sliced_threads=0 / nr=0 / decimate=1 / interlaced=0 / bluray_compat=0 / constrained_intra=0 / bframes=3 / b_pyramid=1 / b_adapt=1 / b_bias=0 / direct=1 / weightb=1 / open_gop=0 / weightp=2 / keyint=50 / keyint_min=25 / scenecut=0 / intra_refresh=0 / rc_lookahead=40 / rc=cbr / mbtree=1 / bitrate=2000 / ratetol=1.0 / qcomp=0.60 / qpmin=0 / qpmax=69 / qpstep=4 / vbv_maxrate=2000 / vbv_bufsize=6000 / nal_hrd=none / filler=0 / ip_ratio=1.40 / aq=1:1.00
Codec configuration box : avcC

Аудио
Идентификатор : 2
Формат : AAC LC
Формат/Информация : Advanced Audio Codec Low Complexity
Идентификатор кодека : mp4a-40-2
Продолжительность : 33 м. 36 с.
Вид битрейта : Постоянный
Битрейт : 256 Кбит/сек
Каналы : 2 канала
Channel layout : L R
Частота : 48,0 КГц
Частота кадров : 46,875 кадров/сек (1024 SPF)
Метод сжатия : С потерями
Размер потока : 61,5 Мбайт (11%)
Default : Да
Alternate group : 1
Any questions - projazzclub@gmail.com
52
Нет комментариев. Ваш будет первым!