Поиск

2013 Marcus Miller - at Montreux Jazz Fest [HDTV 720p]

2013 Marcus Miller - at Montreux Jazz Fest [HDTV 720p]
Дата проведения концерта (записи):
21 июля 2013
Место проведения:
Montreux Jazz Festival
Время звучания:
00:49:00
Главы (разбивка по трекам):
нет
Качество:
HDTV
Контейнер:
TS
Треклист:

1. Dr. Jekyll Mr Hyde
2. Goree
3. My One And Only Love
4. Blast

Состав:
  • Marcus Miller: bass, bass clarinet
  • Alex Han: saxophone
  • Sean Jones: trumpet
  • Adam Agati: guitar
  • Brett Williams: keyboards
  • Louis Cato: drums
Видео:
MPEG4 Video (H264) 1280x720 50fps 9978Kbps
Аудио#1:
Dolby AC3 48000Hz 6ch 448kbps
Дополнительная информация:

This album is available on our DC++ hub:
Этот альбом доступен на нашем DC++ хабе:
dchub://hub.pro-jazz.com:7777

Отчёт DVDInfo/MediaInfo/BDInfo
General
ID : 1 (0x1)
Complete name : J:\Marcus Miller - Montreux 2013.ts
Format : MPEG-TS
File size : 3.76 GiB
Duration : 49mn 0s
Overall bit rate mode : Variable
Overall bit rate : 11.0 Mbps
Maximum Overall bit rate : 35.5 Mbps
Video
ID : 4113 (0x1011)
Menu ID : 1 (0x1)
Format : AVC
Format/Info : Advanced Video Codec
Format profile : High@L4.0
Format settings, CABAC : Yes
Format settings, ReFrames : 3 frames
Codec ID : 27
Duration : 49mn 0s
Bit rate : 9 978 Kbps
Width : 1 280 pixels
Height : 720 pixels
Display aspect ratio : 16:9
Frame rate : 50.000 fps
Standard : Component
Color space : YUV
Chroma subsampling : 4:2:0
Bit depth : 8 bits
Scan type : Progressive
Bits/(Pixel*Frame) : 0.217
Stream size : 3.42 GiB (91%)
Color primaries : BT.709
Transfer characteristics : BT.709
Matrix coefficients : BT.709
Audio
ID : 4352 (0x1100)
Menu ID : 1 (0x1)
Format : AC-3
Format/Info : Audio Coding 3
Mode extension : CM (complete main)
Format settings, Endianness : Big
Codec ID : 129
Duration : 49mn 0s
Bit rate mode : Constant
Bit rate : 448 Kbps
Channel(s) : 6 channels
Channel positions : Front: L C R, Side: L R, LFE
Sampling rate : 48.0 KHz
Bit depth : 16 bits
Compression mode : Lossy
Delay relative to video : 10ms
Stream size : 157 MiB (4%)
Language : German
Any questions - projazzclub@gmail.com
52
Нет комментариев. Ваш будет первым!