Поиск

2014 Caro Emerald - Willkommen Show [HDTV 720p]

2014 Caro Emerald - Willkommen Show [HDTV 720p]
Главы (разбивка по трекам):
нет
Качество:
HDTV
Контейнер:
TS
Треклист:

01. Night Like This
02. Tangled Up

Видео:
MPEG4 Video (H264) 1280x720 50fps 13.4 Mbps
Аудио#1:
Dolby AC3 48000Hz stereo 448kbps
Отчёт DVDInfo/MediaInfo/BDInfo
General
ID : 1 (0x1)
Complete name : E:\Caro Emerald - Willkommen Show 2014.ts
Format : MPEG-TS
File size : 812 MiB
Duration : 7mn 46s
Overall bit rate mode : Variable
Overall bit rate : 14.6 Mbps
Video
ID : 6110 (0x17DE)
Menu ID : 1 (0x1)
Format : AVC
Format/Info : Advanced Video Codec
Format profile : High@L4.0
Format settings, CABAC : Yes
Format settings, ReFrames : 6 frames
Codec ID : 27
Duration : 7mn 46s
Bit rate : 13.4 Mbps
Width : 1 280 pixels
Height : 720 pixels
Display aspect ratio : 16:9
Frame rate : 50.000 fps
Color space : YUV
Chroma subsampling : 4:2:0
Bit depth : 8 bits
Scan type : Progressive
Bits/(Pixel*Frame) : 0.292
Stream size : 747 MiB (92%)
Color primaries : BT.709
Transfer characteristics : BT.709
Matrix coefficients : BT.709
Audio
ID : 6122 (0x17EA)
Menu ID : 1 (0x1)
Format : AC-3
Format/Info : Audio Coding 3
Mode extension : CM (complete main)
Format settings, Endianness : Big
Codec ID : 6
Duration : 7mn 46s
Bit rate mode : Constant
Bit rate : 448 Kbps
Channel(s) : 2 channels
Channel positions : Front: L R
Sampling rate : 48.0 KHz
Bit depth : 16 bits
Compression mode : Lossy
Stream size : 24.9 MiB (3%)
Language : German
Any questions - projazzclub@gmail.com
75
Нет комментариев. Ваш будет первым!