Поиск

1960 Max Roach Quintet - at the Alhambra Theater, Paris (part 1) [WEB-DL 1080p]

1960 Max Roach Quintet - at the Alhambra Theater, Paris (part 1) [WEB-DL 1080p]
Место проведения:
Alhambra Theater, Paris
Главы (разбивка по трекам):
нет
Качество:
WEB-DL
Контейнер:
MP4
Состав:
  • Max Roach — Bandleader, drummer
  • Stanley Turrentine — Tenor/saxophonist
  • Tommy Turrentine — Trumpeter
  • Julian Priester — Trombonist
  • Bobby Boswell — Double bassist
Видео:
AVC (h264) / 1920*1080 / progressive / 16*9 / 1 992 kbps / 25 fps
Аудио#1:
AAC LC / 256 kbps / 44.1 kHz / 2 ch stereo
Описание:

Макс Роуч — возможно, самый влиятельный барабанщик всех времен (с ним поспорили Элвин Джонс и Арт Блэйки). Он был прямым примером для подражания для Тони Аллена, одного из создателей афробита, и Джинджера Бейкера, знаменитого рок-н-рольщика, превратившегося в афро-джазового барабанщика, а также для многих других. Его история началась с появлением бибопа, пионером которого он был, и в дальнейшем он играл практически со всеми главными действующими лицами той эпохи: Чарли Паркер, Майлз Дэвис, Дюк Эллингтон, Телониус Монк, Диззи Гиллеспи, Коулмен Хокинс, Чарльз Мингус, Дайна Уошинтон, Эрик Долфи, Стэн Гетц, Билли Экстайн… список его совместных работ похож на реестр зала славы. Здесь, во время своего третьего визита во французскую столицу, к нему присоединяется звездный квартет, включающий братьев Туррентин, и снимает его вечно актуальный французский режиссер Жан-Кристоф Аверти. 

Первая часть начинается с красивого, спокойного и нежного соло на барабанах, а затем начинается интервью, в котором Роуч рассказывает о своих прошлых совместных работах и о своем пути к этому моменту. Вскоре после этого вступает группа, демонстрируя фантастическое взаимодействие между ударными Роуча и контрабасистом Бобби Босвеллом. Ближе к концу сегмента Роуч получает еще одну возможность поразить публику своей сольной игрой: вертикальная спина, спокойное выражение лица, палочки, которые он держит деликатно в стиле старого джаза, разворачивают прекрасные угрозы ритмических последовательностей, которые полны характера и мелодического содержания. Настоящий мастер своего дела. 

Концерт квинтета Макса Роуча в театре Альгамбра (открытие мюзикла "Free & Dizzy", который был следующим по программе) представлен в двух частях. Вторая часть, которую не стоит упускать из виду, полностью посвящена выступлению музыкантов, а первая начинается с интервью лидера франко-американскому журналисту Симу Копансу.

Мы находимся в 1960 году. Макс Роуч приезжает в Париж уже в третий раз: первый раз он приезжал в 1949 году с Чарли Паркером, а второй — в 1953 году с Лестером Янгом в составе JATP. Вряд ли стоит подписываться под его бронированием на эту дату, Роуч уже является важнейшим действующим лицом и свидетелем истории джаза.

Прежде чем представить музыкантов своего состава, он быстро возвращается к созданию своего первого квинтета с покойным Клиффордом Брауном, во время выхода альбома Daahoud и темы "Jordu". По его словам, квинтет должен объединять все стили в одной группе. Музыканты должны стремиться выразить то, что находится внутри них самих, и в то же время слиться с коллективом. В этом утверждении можно убедиться, послушав "As Long as you're living".

Филипп Лесаж

Отчёт DVDInfo/MediaInfo/BDInfo
Общее
Полное имя : \\M\Max Roach\1960 Max Roach Quintet - at the Alhambra Theater, Paris [WEB-DL 1080p]\1960 Max Roach Quintet - at the Alhambra Theater, Paris (part 1) [WEB-DL 1080p].mp4
Формат : MPEG-4
Профиль формата : Base Media
Идентификатор кодека : isom (isom/iso2/avc1/mp41)
Размер файла : 463 Мбайт
Продолжительность : 28 м. 44 с.
Общий поток : 2 254 Кбит/сек
Частота кадров : 25,000 кадров/сек
HDVideo : Yes

Видео
Идентификатор : 1
Формат : AVC
Формат/Информация : Advanced Video Codec
Профиль формата : High@L4.1
Настройки формата : CABAC / 3 Ref Frames
Параметр CABAC формата : Да
Параметр RefFrames формата : 3 кадра
Идентификатор кодека : avc1
Идентификатор кодека/Информация : Advanced Video Coding
Продолжительность : 28 м. 44 с.
Битрейт : 1 992 Кбит/сек
Ширина : 1 920 пикселей
Высота : 1 080 пикселей
Соотношение сторон : 16:9
Active width : 1 474 пикселя
Active display aspect ratio : 4:3
Режим частоты кадров : Постоянный
Частота кадров : 25,000 кадров/сек
Цветовое пространство : YUV
Субдискретизация насыщенности : 4:2:0
Битовая глубина : 8 бит
Тип развёртки : Прогрессивная
Бит/(Пиксели*Кадры) : 0.038
Размер потока : 409 Мбайт (88%)
Библиотека кодирования : x264 core 155 r2917 0a84d98
Настройки программы : cabac=1 / ref=4 / deblock=1:0:0 / analyse=0x3:0x113 / me=hex / subme=7 / psy=1 / psy_rd=1.00:0.00 / mixed_ref=1 / me_range=16 / chroma_me=1 / trellis=1 / 8x8dct=1 / cqm=0 / deadzone=21,11 / fast_pskip=1 / chroma_qp_offset=-2 / threads=6 / lookahead_threads=1 / sliced_threads=0 / nr=0 / decimate=1 / interlaced=0 / bluray_compat=0 / constrained_intra=0 / bframes=3 / b_pyramid=1 / b_adapt=1 / b_bias=0 / direct=1 / weightb=1 / open_gop=0 / weightp=2 / keyint=50 / keyint_min=25 / scenecut=0 / intra_refresh=0 / rc_lookahead=40 / rc=cbr / mbtree=1 / bitrate=2000 / ratetol=1.0 / qcomp=0.60 / qpmin=0 / qpmax=69 / qpstep=4 / vbv_maxrate=2000 / vbv_bufsize=6000 / nal_hrd=none / filler=0 / ip_ratio=1.40 / aq=1:1.00
Codec configuration box : avcC

Аудио
Идентификатор : 2
Формат : AAC LC
Формат/Информация : Advanced Audio Codec Low Complexity
Идентификатор кодека : mp4a-40-2
Продолжительность : 28 м. 44 с.
Вид битрейта : Постоянный
Битрейт : 256 Кбит/сек
Каналы : 2 канала
Channel layout : L R
Частота : 48,0 КГц
Частота кадров : 46,875 кадров/сек (1024 SPF)
Метод сжатия : С потерями
Размер потока : 52,6 Мбайт (11%)
Default : Да
Alternate group : 1
Any questions - projazzclub@gmail.com
69
Нет комментариев. Ваш будет первым!