Поиск

1960 Bud Powell, Kenny Clarke, Lucky Thompson, Jimmy Gourley, Alice Coltrane - Live from the Blue Note Paris [WEB-DL 1080p]

1960 Bud Powell, Kenny Clarke, Lucky Thompson, Jimmy Gourley, Alice Coltrane - Live from the Blue Note Paris [WEB-DL 1080p]
Состав:
Видео:
AVC (h264) / 1920*1080 / progressive / 16*9 / 2 000 kbps / 25 fps
Аудио#1:
AAC LC / 256 kbps / 44.1 kHz / 2 ch stereo
Описание:

Снятая режиссером Жаном-Кристофом Аверти в джаз-клубе Blue Note в 1960 году, эта живая запись получилась короткой, но насыщенной. На сцену вышла Элис Маклеод, за три года до встречи с Джоном Колтрейном, и американская пианистка предложила проникновенный сет. При поддержке Эла Кинга на контрабасе, Дона Брауна на барабанах и блюзового Билли Пула на вокале она исполнила две открывающие композиции, включая мощную "Woody'n You" Диззи Гиллеспи. Другие известные джазмены, такие как Бад Пауэлл, Пьер Мишело и Кенни Кларк, предложили игривую версию бродвейского стандарта "Get Happy". Квинтет саксофониста Лаки Томпсона заиграл неотразимый свинг в "Strike Up The Band". Гитарист Джимми Гурли отмечает ключевой элемент, а затем в квартетном составе исполняет плавную "How Long Has This Been Going On?" Айры и Джорджа Гершвинов, имеющую определенное влияние. Заключительные треки подчеркивают влияние Алисы Маклеод (ученицы) и Бада Пауэлла (учителя), как показывает эта версия основополагающей "Anthropology".

Винсент Каффьо

Отчёт DVDInfo/MediaInfo/BDInfo
Общее
Полное имя : \\B\Bud Powell\1960 Bud Powell, Kenny Clarke, Lucky Thompson, Jimmy Gourley, Alice Coltrane - Live from the Blue Note Paris [WEB-DL 1080p].MP4
Формат : MPEG-4
Профиль формата : Base Media
Идентификатор кодека : isom (isom/iso2/avc1/mp41)
Размер файла : 639 Мбайт
Продолжительность : 40 м. 0 с.
Общий поток : 2 234 Кбит/сек
Частота кадров : 25,000 кадров/сек
HDVideo : Yes

Видео
Идентификатор : 1
Формат : AVC
Формат/Информация : Advanced Video Codec
Профиль формата : High@L4.1
Настройки формата : CABAC / 3 Ref Frames
Параметр CABAC формата : Да
Параметр RefFrames формата : 3 кадра
Идентификатор кодека : avc1
Идентификатор кодека/Информация : Advanced Video Coding
Продолжительность : 40 м. 0 с.
Битрейт : 2 000 Кбит/сек
Максимальный битрейт : 1 972 Кбит/сек
Ширина : 1 920 пикселей
Высота : 1 080 пикселей
Соотношение сторон : 16:9
Active width : 1 440 пикселей
Active height : 1 064 пикселя
Active display aspect ratio : 4:3
Режим частоты кадров : Постоянный
Частота кадров : 25,000 кадров/сек
Цветовое пространство : YUV
Субдискретизация насыщенности : 4:2:0
Битовая глубина : 8 бит
Тип развёртки : Прогрессивная
Бит/(Пиксели*Кадры) : 0.039
Размер потока : 564 Мбайт (88%)
Библиотека кодирования : x264 core 152 r2854 e9a5903
Настройки программы : cabac=1 / ref=4 / deblock=1:0:0 / analyse=0x3:0x113 / me=hex / subme=7 / psy=1 / psy_rd=1.00:0.00 / mixed_ref=1 / me_range=16 / chroma_me=1 / trellis=1 / 8x8dct=1 / cqm=0 / deadzone=21,11 / fast_pskip=1 / chroma_qp_offset=-2 / threads=6 / lookahead_threads=1 / sliced_threads=0 / nr=0 / decimate=1 / interlaced=0 / bluray_compat=0 / constrained_intra=0 / bframes=3 / b_pyramid=1 / b_adapt=1 / b_bias=0 / direct=1 / weightb=1 / open_gop=0 / weightp=2 / keyint=50 / keyint_min=25 / scenecut=0 / intra_refresh=0 / rc_lookahead=40 / rc=cbr / mbtree=1 / bitrate=2000 / ratetol=1.0 / qcomp=0.60 / qpmin=0 / qpmax=69 / qpstep=4 / vbv_maxrate=2000 / vbv_bufsize=6000 / nal_hrd=none / filler=0 / ip_ratio=1.40 / aq=1:1.00
Codec configuration box : avcC

Аудио
Идентификатор : 2
Формат : AAC LC
Формат/Информация : Advanced Audio Codec Low Complexity
Идентификатор кодека : mp4a-40-2
Продолжительность : 39 м. 59 с.
Вид битрейта : Постоянный
Битрейт : 256 Кбит/сек
Каналы : 2 канала
Channel layout : L R
Частота : 48,0 КГц
Частота кадров : 46,875 кадров/сек (1024 SPF)
Метод сжатия : С потерями
Размер потока : 73,2 Мбайт (11%)
Default : Да
Alternate group : 1
Any questions - projazzclub@gmail.com
64
Нет комментариев. Ваш будет первым!