Поиск

1960 Jazz at the Philharmonic - at the Pleyel Concert Hall, Paris (part 4) [WEB-DL 1080p]

1960 Jazz at the Philharmonic - at the Pleyel Concert Hall, Paris (part 4) [WEB-DL 1080p]
Стиль:
Место проведения:
Pleyel Concert Hall, Paris
Время звучания:
00:31:34
Главы (разбивка по трекам):
нет
Качество:
WEB-DL
Контейнер:
MP4
Видео:
AVC (h264) / 1920*1080 / progressive / 16*9 / 1 985 kbps / 25 fps
Аудио#1:
AAC LC / 256 kbps / 44.1 kHz / 2 ch stereo
Описание:

Именно Норман Гранц разработал рецепт постановки на одну сцену знаменитых артистов разных поколений и стилей. Он сделал это для так называемых концертов JATP (названных в честь филармонического зала, где в 1944 году состоялся первый концерт). Диззи Гиллеспи, который уже был на вершине славы и без которого бибоп никогда бы не увидел свет, — самый старший артист в этом концерте — ему 43 года, в то время как остальным музыкантам за тридцать (Гетцу — 32, Кэннонболу Эддерли — 31; самый молодой — аргентинский пианист Лало Шифрин, которому 28 лет). Когда тонкости бопа полностью усвоены, молодые волки начинают двигаться к другим горизонтам.

В предлагаемом концерте, более роскошном, чем просто джем-сейшн, можно увидеть джаз-фанк братьев Аддерли, прекрасные наряды тромбониста Джей-Джея Джонсона и Стэна Гетца, который в то время считался лучшим тенор-саксофонистом мира по версии специализированных американских журналов и у которого появился вкус к босса-нове. Несомненно, главным событием вечера является квинтет Диззи Гиллеспи, который сразу же привносит латинскую атмосферу в происходящее. Лало Шифрин, известный своей музыкой к фильмам ("Манникс", "Миссия невыполнима..."), в тот день был идеальным аккомпаниатором для человека с изогнутой трубой.

Филипп Лесаж

Отчёт DVDInfo/MediaInfo/BDInfo
Общее
Полное имя : \\J\Jazz At The Philharmonic\1960 Jazz at the Philharmonic - at the Pleyel Concert Hall, Paris (part 4) [WEB-DL 1080p]\1960 Jazz at the Philharmonic - at the Pleyel Concert Hall, Paris (part 4) [WEB-DL 1080p].mp4
Формат : MPEG-4
Профиль формата : Base Media
Идентификатор кодека : isom (isom/iso2/avc1/mp41)
Размер файла : 508 Мбайт
Продолжительность : 31 м. 34 с.
Общий поток : 2 247 Кбит/сек
Частота кадров : 25,000 кадров/сек
HDVideo : Yes

Видео
Идентификатор : 1
Формат : AVC
Формат/Информация : Advanced Video Codec
Профиль формата : High@L4.1
Настройки формата : CABAC / 3 Ref Frames
Параметр CABAC формата : Да
Параметр RefFrames формата : 3 кадра
Параметр GOP формата : M=4, N=50
Идентификатор кодека : avc1
Идентификатор кодека/Информация : Advanced Video Coding
Продолжительность : 31 м. 34 с.
Битрейт : 1 985 Кбит/сек
Ширина : 1 920 пикселей
Высота : 1 080 пикселей
Соотношение сторон : 16:9
Active width : 1 403 пикселя
Active height : 1 063 пикселя
Active display aspect ratio : 4:3
Режим частоты кадров : Постоянный
Частота кадров : 25,000 кадров/сек
Цветовое пространство : YUV
Субдискретизация насыщенности : 4:2:0
Битовая глубина : 8 бит
Тип развёртки : Прогрессивная
Бит/(Пиксели*Кадры) : 0.038
Размер потока : 448 Мбайт (88%)
Библиотека кодирования : x264 core 152 r2854 e9a5903
Настройки программы : cabac=1 / ref=4 / deblock=1:0:0 / analyse=0x3:0x113 / me=hex / subme=7 / psy=1 / psy_rd=1.00:0.00 / mixed_ref=1 / me_range=16 / chroma_me=1 / trellis=1 / 8x8dct=1 / cqm=0 / deadzone=21,11 / fast_pskip=1 / chroma_qp_offset=-2 / threads=6 / lookahead_threads=1 / sliced_threads=0 / nr=0 / decimate=1 / interlaced=0 / bluray_compat=0 / constrained_intra=0 / bframes=3 / b_pyramid=1 / b_adapt=1 / b_bias=0 / direct=1 / weightb=1 / open_gop=0 / weightp=2 / keyint=50 / keyint_min=25 / scenecut=0 / intra_refresh=0 / rc_lookahead=40 / rc=cbr / mbtree=1 / bitrate=2000 / ratetol=1.0 / qcomp=0.60 / qpmin=0 / qpmax=69 / qpstep=4 / vbv_maxrate=2000 / vbv_bufsize=6000 / nal_hrd=none / filler=0 / ip_ratio=1.40 / aq=1:1.00
Codec configuration box : avcC

Аудио
Идентификатор : 2
Формат : AAC LC
Формат/Информация : Advanced Audio Codec Low Complexity
Идентификатор кодека : mp4a-40-2
Продолжительность : 31 м. 34 с.
Вид битрейта : Постоянный
Битрейт : 256 Кбит/сек
Каналы : 2 канала
Channel layout : L R
Частота : 48,0 КГц
Частота кадров : 46,875 кадров/сек (1024 SPF)
Метод сжатия : С потерями
Размер потока : 57,8 Мбайт (11%)
Default : Да
Alternate group : 1
Any questions - projazzclub@gmail.com
88
Нет комментариев. Ваш будет первым!