Поиск

2012 Henri Texier Hope Quartet - La Defense Jazz Fest [HDTV 1080p]

2012 Henri Texier Hope Quartet - La Defense Jazz Fest [HDTV 1080p]
Треклист:

1. Elvin (Henri Texier)
2. La Fin Du Voyage (Sebastien Texier)
3. Desaparecido (Henri Texier)
4. Song For Paul Motian (Sebastien Texier)
5. Sacrifice / S.O.S. Mir (Henri Texier)
6. Sommeil Caillou (Henri Texier / Sebastien Texier)

Состав:
  • Sebastien Texier - alto sax, clarinet, alto clarinet
  • Jean-Charles Richard - baritone sax, soprano sax
  • Louis Moutin - drums
  • Henri Texier - double bass
Видео:
1920x1080 (16:9), 25.00 fps, AVC, 9263 Кбит, 0.177 bits/pixel
Аудио#1:
48.0 KHz, AAC-LC, 2 ch, stereo, 128-384 Kbps VBR
Дополнительная информация:

This album is available on our DC++ hub:
Этот альбом доступен на нашем DC++ хабе:
dchub://hub.pro-jazz.com:7777

Отчёт DVDInfo/MediaInfo/BDInfo
\\Henri Texier\Henri Texier Hope Quartet - LDJF 2012\Henri Texier Hope Quartet - La Defense Jazz Festival 2012.mp4
Формат : MPEG-4
Профиль формата : Base Media / Version 2
Идентификатор кодека : mp42
Размер файла : 4,31 Гбайт
Продолжительность : 1 ч. 1 м.
Режим общего битрейта : Переменный
Общий поток : 10,1 Мбит/сек
Дата кодирования : UTC 2014-02-20 08:45:36
Дата пометки : UTC 2014-02-20 08:45:36
Видео
Идентификатор : 2
Формат : AVC
Формат/Информация : Advanced Video Codec
Профиль формата : Main@L4.1
Параметр CABAC формата : Да
Параметр ReFrames формата : 2 кадра
Параметр GOP формата : M=3, N=30
Идентификатор кодека : avc1
Идентификатор кодека/Информация : Advanced Video Coding
Продолжительность : 1 ч. 1 м.
Продолжительность оригинала : 1 ч. 1 м.
Вид битрейта : Переменный
Битрейт : 9263 Кбит/сек
Максимальный битрейт : 10,0 Мбит/сек
Ширина : 1920 пикселей
Высота : 1088 пикселей
Высота оригинала : 1080 пикселей
Соотношение сторон : 16:9
Соотношение сторон в оригинале : 16:9
Режим частоты кадров : Постоянный
Частота кадров : 25,000 кадров/сек
Частота кадров в оригинале : 12,500 кадров/сек
Цветовое пространство : YUV
Субдискретизация насыщенности : 4:2:0
Битовая глубина : 8 бит
Тип развёртки : Прогрессивная
Бит/(Пиксели*Кадры) : 0.177
Размер потока : 3,97 Гбайт (92%)
Размер потока оригинала : 4,14 Гбайт (96%)
Язык : English
Дата кодирования : UTC 2014-02-20 08:45:36
Дата пометки : UTC 2014-02-20 08:45:36
Аудио
Идентификатор : 1
Формат : AAC
Формат/Информация : Advanced Audio Codec
Профиль формата : LC
Идентификатор кодека : 40
Продолжительность : 1 ч. 1 м.
Продолжительность оригинала : 1 ч. 1 м.
Вид битрейта : Постоянный
Битрейт : 384 Кбит/сек
Номинальный битрейт : 128 Кбит/сек
Каналы : 2 канала
Расположение каналов : Front: L R
Частота : 48,0 КГц
Метод сжатия : С потерями
Размер потока : 168 Мбайт (4%)
Размер потока оригинала : 168 Мбайт (4%)
Язык : English
Дата кодирования : UTC 2014-02-20 08:45:36
Дата пометки : UTC 2014-02-20 08:45:36
mdhd_Duration : 3680805
Any questions - projazzclub@gmail.com
78
Нет комментариев. Ваш будет первым!