Поиск

2012 Guillaume Perret & The Electric Epic - La Defense Jazz Fest [HDTV 1080p]

2012 Guillaume Perret & The Electric Epic - La Defense Jazz Fest [HDTV 1080p]
Стиль:
Главы (разбивка по трекам):
нет
Качество:
HDTV
Контейнер:
MP4
Треклист:

1. Heavy Dense
2. Shoe Box
3. Ethiopic Vertigo
4. Kakoum

Состав:
  • Jim Grandcamp - electric guitar
  • Philippe Bussonnet - electric bass
  • Yoan Serra - drums, sampler
  • Guillaume Perret - electric sax, FX, composition , direction
Видео:
AVC (h264) / 1920*1080 / progressive / 16*9 / 9 353 kbps / 25 fps
Аудио#1:
AAC LC / 128-384 kbps / 44.1 kHz / 2 ch stereo
Дополнительная информация:

This album is available on our DC++ hub:
Этот альбом доступен на нашем DC++ хабе:
dchub://hub.pro-jazz.com:7777

Отчёт DVDInfo/MediaInfo/BDInfo
Полное имя : Guillaume Perret - LDJF 2012\Guillaume Perret & The Electric Epic - La Defense Jazz Festival 2012.mp4
Формат : MPEG-4
Профиль формата : Base Media / Version 2
Идентификатор кодека : mp42
Размер файла : 2,64 Гбайт
Продолжительность : 37 м.
Режим общего битрейта : Переменный
Общий поток : 10,1 Мбит/сек
Дата кодирования : UTC 2014-02-20 06:42:32
Дата пометки : UTC 2014-02-20 06:42:32
Видео
Идентификатор : 2
Формат : AVC
Формат/Информация : Advanced Video Codec
Профиль формата : Main@L4.1
Параметр CABAC формата : Да
Параметр ReFrames формата : 2 кадра
Параметр GOP формата : M=3, N=30
Идентификатор кодека : avc1
Идентификатор кодека/Информация : Advanced Video Coding
Продолжительность : 37 м.
Продолжительность оригинала : 37 м.
Вид битрейта : Переменный
Битрейт : 9353 Кбит/сек
Максимальный битрейт : 10,0 Мбит/сек
Ширина : 1920 пикселей
Высота : 1088 пикселей
Высота оригинала : 1080 пикселей
Соотношение сторон : 16:9
Соотношение сторон в оригинале : 16:9
Режим частоты кадров : Постоянный
Частота кадров : 25,000 кадров/сек
Частота кадров в оригинале : 12,500 кадров/сек
Цветовое пространство : YUV
Субдискретизация насыщенности : 4:2:0
Битовая глубина : 8 бит
Тип развёртки : Прогрессивная
Бит/(Пиксели*Кадры) : 0.179
Размер потока : 2,43 Гбайт (92%)
Размер потока оригинала : 2,54 Гбайт (96%)
Язык : English
Дата кодирования : UTC 2014-02-20 06:42:32
Дата пометки : UTC 2014-02-20 06:42:32
Аудио
Идентификатор : 1
Формат : AAC
Формат/Информация : Advanced Audio Codec
Профиль формата : LC
Идентификатор кодека : 40
Продолжительность : 37 м.
Продолжительность оригинала : 37 м.
Вид битрейта : Постоянный
Битрейт : 384 Кбит/сек
Номинальный битрейт : 128 Кбит/сек
Каналы : 2 канала
Расположение каналов : Front: L R
Частота : 48,0 КГц
Метод сжатия : С потерями
Размер потока : 102 Мбайт (4%)
Размер потока оригинала : 102 Мбайт (4%)
Язык : English
Дата кодирования : UTC 2014-02-20 06:42:32
Дата пометки : UTC 2014-02-20 06:42:32
mdhd_Duration : 2234621
Any questions - projazzclub@gmail.com
81
Нет комментариев. Ваш будет первым!