Поиск

2023 Ana Carla Maza - Journeys Through Music [WEB-DL 1080p]

2023 Ana Carla Maza - Journeys Through Music [WEB-DL 1080p]
Главы (разбивка по трекам):
нет
Качество:
WEB-DL
Контейнер:
MP4
Состав:
  • Ana Carla MazaVioloncelle, Voix
  • Luis A Guerra - Percussions
  • Marc Ayza - Batterie
  • Norman Peplow - Claviers
  • Fidel Fourneyron - Trombone

 

Видео:
AVC (h264) / 1920*1080 / progressive / 16*9 / 2143 kbps / 25 fps
Аудио#1:
AAC LC / 132 kbps / 44.1 kHz / 2 ch stereo
Описание:

Ана Карла Маза выступает в Cabaret Sauvage в составе трио. С таким солидным сопровождением кубинская виолончелистка и композитор погружает нас в красочный мир своего альбома Caribe для Journeys Through Music.

"Caribe", третий альбом кубинской виолончелистки и композитора Аны Карлы Мазы, — это новое признание в любви к латиноамериканской музыке, уже выраженное в ее предыдущем опусе, "Bahia". За "Bahia", вышедшим в 2022 году, последовало турне из 150 концертов в 14 странах. На перекрестке своих путешествий Ана Карла Маза превратила интимность виолончели в красочный, энергичный и танцевальный секстет латинского джаза.

= Об этом говорят =
Caribe, один из 18 самых долгожданных альбомов осени. Ее мятежный, виртуозный подбор, пламенный темперамент и широкие горизонты сделали ее силой, с которой приходится считаться на всех фронтах. В своем новом альбоме "Caribe" кубинская певица и виолончелистка переосмысливает свою разбитую вдребезги латинскость под наглым, радостно свингующим соусом латин-джаза. Она трансформирует композиции из своего предыдущего альбома и расширяет свои карибские горизонты. Между кумбией и самбой, танго и сальсой ее новый секстет обязательно заставит всех танцевать.

(Анн Бертод, Télérama)

Отчёт DVDInfo/MediaInfo/BDInfo
Общее
Полное имя : \\A\Ana Carla Maza\2023 Ana Carla Maza - Journeys Through Music [WEB-DL 1080p]\2023 Ana Carla Maza - Journeys Through Music [WEB-DL 1080p].mp4
Формат : MPEG-4
Профиль формата : Base Media
Идентификатор кодека : isom (isom/iso2/avc1/mp41)
Размер файла : 756 Мбайт
Продолжительность : 46 м. 19 с.
Общий поток : 2 281 Кбит/сек
Частота кадров : 25,000 кадров/сек
Программа кодирования : Lavf61.1.100

Видео
Идентификатор : 1
Формат : AVC
Формат/Информация : Advanced Video Codec
Профиль формата : Main@L4
Настройки формата : CABAC / 4 Ref Frames
Параметр CABAC формата : Да
Параметр RefFrames формата : 4 кадра
Идентификатор кодека : avc1
Идентификатор кодека/Информация : Advanced Video Coding
Продолжительность : 46 м. 19 с.
Продолжительность оригинала : 46 м. 19 с.
Битрейт : 2 143 Кбит/сек
Ширина : 1 920 пикселей
Высота : 1 080 пикселей
Соотношение сторон : 16:9
Режим частоты кадров : Постоянный
Частота кадров : 25,000 кадров/сек
Цветовое пространство : YUV
Субдискретизация насыщенности : 4:2:0
Битовая глубина : 8 бит
Тип развёртки : Прогрессивная
Бит/(Пиксели*Кадры) : 0.041
Размер потока : 679 Мбайт (90%)
Размер потока оригинала : 710 Мбайт (94%)
Библиотека кодирования : x264 core 164 r3095 baee400
Настройки программы : cabac=1 / ref=3 / deblock=1:0:0 / analyse=0x1:0x111 / me=hex / subme=8 / psy=1 / psy_rd=1.00:0.00 / mixed_ref=1 / me_range=16 / chroma_me=1 / trellis=2 / 8x8dct=0 / cqm=0 / deadzone=21,11 / fast_pskip=1 / chroma_qp_offset=-2 / threads=34 / lookahead_threads=5 / sliced_threads=0 / nr=0 / decimate=1 / interlaced=0 / bluray_compat=0 / constrained_intra=0 / bframes=3 / b_pyramid=2 / b_adapt=2 / b_bias=0 / direct=3 / weightb=1 / open_gop=0 / weightp=2 / keyint=100 / keyint_min=50 / scenecut=40 / intra_refresh=0 / rc_lookahead=50 / rc=abr / mbtree=1 / bitrate=2132 / ratetol=1.0 / qcomp=0.60 / qpmin=0 / qpmax=69 / qpstep=4 / vbv_maxrate=4264 / vbv_bufsize=8528 / nal_hrd=none / filler=0 / ip_ratio=1.40 / aq=1:1.00
Цветовой диапазон : Limited
Основные цвета : BT.709
Характеристики трансфера : BT.709
Коэффициенты матрицы : BT.709
Codec configuration box : avcC

Аудио
Идентификатор : 2
Формат : AAC LC
Формат/Информация : Advanced Audio Codec Low Complexity
Идентификатор кодека : mp4a-40-2
Продолжительность : 46 м. 19 с.
Вид битрейта : Постоянный
Битрейт : 132 Кбит/сек
Каналы : 2 канала
Channel layout : L R
Частота : 44,1 КГц
Частота кадров : 43,066 кадра/сек (1024 SPF)
Метод сжатия : С потерями
Размер потока : 43,4 Мбайт (6%)
Default : Да
Alternate group : 1
Any questions - projazzclub@gmail.com
82
Нет комментариев. Ваш будет первым!