Поиск

2022 Jazzanova & DJ Amir - at Elbjazz Fest [WEB-DL 720p]

2022 Jazzanova & DJ Amir - at Elbjazz Fest [WEB-DL 720p]
Стиль:
Главы (разбивка по трекам):
есть
Качество:
WEB-DL
Контейнер:
MP4
Видео:
AVC (h.264) / 1280x720 / progressive / 16x9 / 2 146 kbps / 25 fps
Аудио#1:
AAC-LC / 256 kbps / 48,0 kHz / 2.0 stereo
Описание:

Jazzanova — это команда диджеев/продюсеров из Германии (Берлин, Гамбург и Мюнхен), в которую входят Александр Барк, Аксель Райнемер, Клаас Брилер, Юрген фон Кноблаух, Росков Кречманн и Штефан Лейзеринг. Они производят хиты на брейкбитовой / электронной сцене с 1996 года. Их музыка сочетает в себе множество стилей, включая эйсид-джаз, соул и брейкбит.

Нью-йоркский диджей и владелец лейбла Амир Абдулла, известный как DJ Amir, и берлинский продюсерский коллектив Jazzanova решили вместе пересмотреть репертуар Strata Records. Их творение, Sound of Detroit, объединяет и переосмысливает тщательно отобранные композиции — работа, отличающаяся большой деликатностью и уважением к наследию прошлого. Зажигательная команда представляет публике Elbjazz мелодии, которые считались утерянными, в исполнении девяти музыкантов для незабываемого живого выступления.

Дополнительная информация:

This album is available on our DC++ hub:
Этот альбом доступен на нашем DC++ хабе:
dchub://hub.pro-jazz.com:7777

Отчёт DVDInfo/MediaInfo/BDInfo
Общее
Полное имя : \\J\Jazzanova\2022 Jazzanova & DJ Amir - at Elbjazz Fest [WEB-DL 720p]\2022 Jazzanova & DJ Amir - at Elbjazz Fest [WEB-DL 720p].mp4
Формат : MPEG-4
Профиль формата : Base Media
Идентификатор кодека : isom (isom/iso2/avc1/mp41)
Размер файла : 1 003 Мбайт
Продолжительность : 58 м. 8 с.
Режим общего битрейта : Переменный
Общий поток : 2 413 Кбит/сек
Частота кадров : 25,000 кадров/сек
Программа кодирования : VideoReDo (Lavf58.29.100)

Видео
Идентификатор : 1
Формат : AVC
Формат/Информация : Advanced Video Codec
Профиль формата : Main@L3.1
Настройки формата : CABAC / 3 Ref Frames
Параметр CABAC формата : Да
Параметр RefFrames формата : 3 кадра
Идентификатор кодека : avc1
Идентификатор кодека/Информация : Advanced Video Coding
Продолжительность : 58 м. 7 с.
Вид битрейта : Переменный
Битрейт : 2 146 Кбит/сек
Максимальный битрейт : 2 200 Кбит/сек
Ширина : 1 280 пикселей
Высота : 720 пикселей
Соотношение сторон : 16:9
Режим частоты кадров : Постоянный
Частота кадров : 25,000 кадров/сек
Стандарт вещания : PAL
Цветовое пространство : YUV
Субдискретизация насыщенности : 4:2:0
Битовая глубина : 8 бит
Тип развёртки : Прогрессивная
Бит/(Пиксели*Кадры) : 0.093
Размер потока : 892 Мбайт (89%)
Цветовой диапазон : Limited
Основные цвета : BT.709
Характеристики трансфера : BT.709
Коэффициенты матрицы : BT.709
Menus : 3
Codec configuration box : avcC

Аудио
Идентификатор : 2
Формат : AAC LC
Формат/Информация : Advanced Audio Codec Low Complexity
Идентификатор кодека : mp4a-40-2
Продолжительность : 58 м. 8 с.
Duration_LastFrame : -21 мс.
Вид битрейта : Переменный
Битрейт : 253 Кбит/сек
Максимальный битрейт : 256 Кбит/сек
Каналы : 2 канала
Channel layout : L R
Частота : 48,0 КГц
Частота кадров : 46,875 кадров/сек (1024 SPF)
Метод сжатия : С потерями
Размер потока : 105 Мбайт (11%)
Default : Да
Alternate group : 1
Menus : 3

Меню #1
Идентификатор : 3
Формат : txet
Идентификатор кодека : txet
Продолжительность : 58 м. 8 с.
Язык : English
Menu For : 1,2
Duration_LastFrame : -112000

Меню #2
00:00:00.000 : Chapter 1
00:05:00.000 : Chapter 2
00:10:00.000 : Chapter 3
00:15:00.000 : Chapter 4
00:20:00.000 : Chapter 5
00:25:00.000 : Chapter 6
00:30:00.000 : Chapter 7
00:35:00.000 : Chapter 8
00:40:00.000 : Chapter 9
00:45:00.000 : Chapter 10
00:50:00.000 : Chapter 11
00:55:00.000 : Chapter 12
Any questions - projazzclub@gmail.com
127
Нет комментариев. Ваш будет первым!