Поиск

2013 Sheila E. & Band - at Leverkusener Jazztage [HDTV 720p]

2013 Sheila E. & Band - at Leverkusener Jazztage [HDTV 720p]
Стиль:
Главы (разбивка по трекам):
нет
Качество:
HDTV
Контейнер:
TS
Треклист:

01 OLD SKOOL
02 ROCKSTAR
03 NASTY THINGS
04 LOVE BIZARRE
05 MEDLEY
06 LEADER OF THE BAND
07 WHO I AM NOW
08 GLAMOROUS LIFE

Состав:
  • Sheila E. - percussion, drums, lead. vocals
  • Joel Behrman - trumpet, trombone
  • Mike Blankenship - keyboards
  • Adam Hawley - guitar
  • Raymond McKinley - bass
  • Chris Coleman - drums
Видео:
AVC (h.264) / 1280x720 / progressive / 16x9 / 7 312 kbps / 50 fps
Аудио#1:
Dolby / AC3 / 48000Hz / stereo / 448kbps
Дополнительная информация:

This album is available on our DC++ hub:
Этот альбом доступен на нашем DC++ хабе:
dchub://hub.pro-jazz.com:7777

Отчёт DVDInfo/MediaInfo/BDInfo
General
ID : 1 (0x1)
Complete name : E:\Sheila E. & Band - Leverkusener Jazztage, 2013-11-10\Sheila E. & Band - Leverkusener Jazztage, 2013-11-10.ts
Format : MPEG-TS
File size : 3.33 GiB
Duration : 58mn 24s
Overall bit rate mode : Variable
Overall bit rate : 8 168 Kbps
Video
ID : 5501 (0x157D)
Menu ID : 1 (0x1)
Format : AVC
Format/Info : Advanced Video Codec
Format profile : High@L4.0
Format settings, CABAC : Yes
Format settings, ReFrames : 4 frames
Codec ID : 27
Duration : 58mn 24s
Bit rate : 7 312 Kbps
Width : 1 280 pixels
Height : 720 pixels
Display aspect ratio : 16:9
Frame rate : 50.000 fps
Color space : YUV
Chroma subsampling : 4:2:0
Bit depth : 8 bits
Scan type : Progressive
Bits/(Pixel*Frame) : 0.159
Stream size : 2.98 GiB (90%)
Audio
ID : 5506 (0x1582)
Menu ID : 1 (0x1)
Format : AC-3
Format/Info : Audio Coding 3
Mode extension : CM (complete main)
Format settings, Endianness : Big
Codec ID : 6
Duration : 58mn 24s
Bit rate mode : Constant
Bit rate : 448 Kbps
Channel(s) : 2 channels
Channel positions : Front: L R
Sampling rate : 48.0 KHz
Bit depth : 16 bits
Compression mode : Lossy
Stream size : 187 MiB (5%)
Language : German
Any questions - projazzclub@gmail.com
143
Нет комментариев. Ваш будет первым!