Поиск

2013 Wayne Shorter Quartet - at Jazz in Marciac [HDTV 1080p]

2013 Wayne Shorter Quartet - at Jazz in Marciac [HDTV 1080p]
Дата проведения концерта (записи):
30 july 2013
Треклист:

1. Medley :
a). Zero Gravity
d). Water Babies
c). Orbits
d). She Moved Through The Fair
e). Lotus
f). Plaza Real
2. Adventures Abroad The Golden Mean / I Go My Way By Myself
3. Joy Rider

Состав:
Видео:
1920x1080 (16:9), 25.00 fps, AVC, 9312 Кбит, 0.178 bits/pixel
Аудио#1:
48.0 KHz, AAC-LC, 2 ch, stereo, 128-384 Kbps VBR
Дополнительная информация:

This album is available on our DC++ hub:
Этот альбом доступен на нашем DC++ хабе:
dchub://hub.pro-jazz.com:7777

Отчёт DVDInfo/MediaInfo/BDInfo
Полное имя : \\Wayne Shorter\Wayne Shorter Quartet - Jazz in Marciac 2013.mp4
Формат : MPEG-4
Профиль формата : Base Media / Version 2
Идентификатор кодека : mp42
Размер файла : 4,28 Гбайт
Продолжительность : 1 ч. 0 м.
Режим общего битрейта : Переменный
Общий поток : 10,1 Мбит/сек
Дата кодирования : UTC 2014-02-17 05:14:23
Дата пометки : UTC 2014-02-17 05:14:23
Видео
Идентификатор : 2
Формат : AVC
Формат/Информация : Advanced Video Codec
Профиль формата : Main@L4.1
Параметр CABAC формата : Да
Параметр ReFrames формата : 2 кадра
Параметр GOP формата : M=3, N=30
Идентификатор кодека : avc1
Идентификатор кодека/Информация : Advanced Video Coding
Продолжительность : 1 ч. 0 м.
Продолжительность оригинала : 1 ч. 0 м.
Вид битрейта : Переменный
Битрейт : 9312 Кбит/сек
Максимальный битрейт : 10,0 Мбит/сек
Ширина : 1920 пикселей
Высота : 1088 пикселей
Высота оригинала : 1080 пикселей
Соотношение сторон : 16:9
Соотношение сторон в оригинале : 16:9
Режим частоты кадров : Постоянный
Частота кадров : 25,000 кадров/сек
Частота кадров в оригинале : 12,500 кадров/сек
Цветовое пространство : YUV
Субдискретизация насыщенности : 4:2:0
Битовая глубина : 8 бит
Тип развёртки : Прогрессивная
Бит/(Пиксели*Кадры) : 0.178
Размер потока : 3,94 Гбайт (92%)
Размер потока оригинала : 4,11 Гбайт (96%)
Язык : English
Дата кодирования : UTC 2014-02-17 05:14:23
Дата пометки : UTC 2014-02-17 05:14:23
Аудио
Идентификатор : 1
Формат : AAC
Формат/Информация : Advanced Audio Codec
Профиль формата : LC
Идентификатор кодека : 40
Продолжительность : 1 ч. 0 м.
Продолжительность оригинала : 1 ч. 0 м.
Вид битрейта : Постоянный
Битрейт : 384 Кбит/сек
Номинальный битрейт : 128 Кбит/сек
Каналы : 2 канала
Расположение каналов : Front: L R
Частота : 48,0 КГц
Метод сжатия : С потерями
Размер потока : 166 Мбайт (4%)
Размер потока оригинала : 166 Мбайт (4%)
Язык : English
Дата кодирования : UTC 2014-02-17 05:14:23
Дата пометки : UTC 2014-02-17 05:14:23
mdhd_Duration : 3635002
Any questions - projazzclub@gmail.com
169
Нет комментариев. Ваш будет первым!