Поиск

1958 Dizzy Gillespie, Sonny Stitt - Jazz at the Philarmonic at Cirque Royal (RTBF Archives) [WEB-DL 1080p]

1958 Dizzy Gillespie, Sonny Stitt - Jazz at the Philarmonic at Cirque Royal (RTBF Archives) [WEB-DL 1080p]
Место проведения:
Le Cirque Royal (Brussels, Belgium)
Главы (разбивка по трекам):
нет
Качество:
WEB-DL
Контейнер:
MP4
Состав:
  • Dizzy Gillespie — Bandleader, trumpeter
  • Sonny Stitt — Bandleader, Alto saxophonist, Tenor/baritone saxophonist
  • Ray Brown — Double bassist
  • Gus Johnson — Drummer
  • Lou Levy — Pianist
Видео:
AVC (h.264) / 1920x1080 / progressive / 16x9 / 1 990 kbps / 25 fps
Аудио#1:
AAC-LC / 256 kbps / 48,0 kHz / 2.0 stereo
Описание:

На дворе 1958 год, и легендарный менеджер Норман Гранц продюсирует турне Jazz At the Philharmonic по Европе, в котором принимают участие такие звезды джаза, как Элла Фицджеральд, Диззи Гиллеспи и Сонни Ститт. Последние двое принимают участие в этом выступлении, которое состоялось в Le Cirque Royal в Бельгии. Первые слова Диззи, призванные утихомирить и без того буйную корону, звучат просто: "Asseyez-vous" (садись).

С этого момента они вдвоем продолжают колдовать над звуком, который у современных зрителей вызывает чувство острой, туманной ностальгии. Но даже для зрителей 1958 года это была бы та самая переполненная романтика — именно в 30-е и 40-е годы джаз стал таким плавным, мелодичным и свингующим. Выступая перед звездным составом, в который входили великие Рэй Браун, Лу Леви и Гас Джонсон, пара исполняет такие нестареющие произведения, как "On The Sunny Side Of The Street" и "Cocktails For Two". Очарование — это мягко сказано.

Трубач Диззи Гиллеспи и саксофонист Сонни Ститт прославились в середине 1940-х годов, но и десять лет спустя оба музыканта играли с такой же силой и изобретательной красотой, как и прежде. Более того, можно сказать, что оба играли лучше, чем когда-либо, и доказательством тому может служить это потрясающее выступление, запечатленное на концерте в Брюсселе во время турне Jazz At the Philharmonic, организованного в 1958 году Норманом Гранцем.

Гиллеспи и Ститт работали вместе в годы становления бибопа, и их творческая связь, очевидно, оставалась прочной. Оказавшись в то время в тени Чарли Паркера, Ститт к 1950-м годам перешел с альт-саксофона на тенор, чтобы избежать сравнений. Его интенсивная игра на более крупном рожке демонстрирует полную силу атаки и экспрессивность. Он также предлагает нам свой роскошный альт для страстного исполнения баллады "Lover Man".

Гиллеспи тоже был в отличной форме в этот вечер, независимо от того, что он исполнял — зажигательные номера или баллады. Никто не смог превзойти его в бибопе — он, конечно, помог его изобрести. Подстрекаемый таким энергичным игроком, как Ститт, трубач поднимается на вершину, и результаты оказываются захватывающими. А когда Гиллеспи и Ститт вместе исполняют вокальную версию "On the Sunny Side of the Street", вы понимаете, что этих людей связывает долгая и плодотворная история. С крепкой ритм-секцией, бьющей сзади, эти два гиганта бибопа, должно быть, чувствовали, что нет на земле места, где бы они предпочли оказаться, чем эта сцена в тот вечер.

Стив Фаттерман

Дополнительная информация:

This album is available on our DC++ hub:
Этот альбом доступен на нашем DC++ хабе:
dchub://hub.pro-jazz.com:7777

Отчёт DVDInfo/MediaInfo/BDInfo
Общее
Полное имя : \\Dizzy Gillespie\1958 Dizzy Gillespie, Sonny Stitt - RTBF Archives [WEB-DL 1080p]\1958 Dizzy Gillespie, Sonny Stitt - RTBF Archives [WEB-DL 1080p].mp4
Формат : MPEG-4
Профиль формата : Base Media
Идентификатор кодека : isom (isom/iso2/avc1/mp41)
Размер файла : 504 Мбайт
Продолжительность : 31 м. 17 с.
Общий поток : 2 252 Кбит/сек
Частота кадров : 25,000 кадров/сек
HDVideo : Yes

Видео
Идентификатор : 1
Формат : AVC
Формат/Информация : Advanced Video Codec
Профиль формата : High@L4.1
Настройки формата : CABAC / 3 Ref Frames
Параметр CABAC формата : Да
Параметр RefFrames формата : 3 кадра
Идентификатор кодека : avc1
Идентификатор кодека/Информация : Advanced Video Coding
Продолжительность : 31 м. 17 с.
Битрейт : 1 990 Кбит/сек
Ширина : 1 920 пикселей
Высота : 1 080 пикселей
Соотношение сторон : 16:9
Active width : 1 438 пикселей
Active display aspect ratio : 4:3
Режим частоты кадров : Постоянный
Частота кадров : 25,000 кадров/сек
Цветовое пространство : YUV
Субдискретизация насыщенности : 4:2:0
Битовая глубина : 8 бит
Тип развёртки : Прогрессивная
Бит/(Пиксели*Кадры) : 0.038
Размер потока : 445 Мбайт (88%)
Библиотека кодирования : x264 core 152 r2854 e9a5903
Настройки программы : cabac=1 / ref=4 / deblock=1:0:0 / analyse=0x3:0x113 / me=hex / subme=7 / psy=1 / psy_rd=1.00:0.00 / mixed_ref=1 / me_range=16 / chroma_me=1 / trellis=1 / 8x8dct=1 / cqm=0 / deadzone=21,11 / fast_pskip=1 / chroma_qp_offset=-2 / threads=6 / lookahead_threads=1 / sliced_threads=0 / nr=0 / decimate=1 / interlaced=0 / bluray_compat=0 / constrained_intra=0 / bframes=3 / b_pyramid=1 / b_adapt=1 / b_bias=0 / direct=1 / weightb=1 / open_gop=0 / weightp=2 / keyint=50 / keyint_min=25 / scenecut=0 / intra_refresh=0 / rc_lookahead=40 / rc=cbr / mbtree=1 / bitrate=2000 / ratetol=1.0 / qcomp=0.60 / qpmin=0 / qpmax=69 / qpstep=4 / vbv_maxrate=2000 / vbv_bufsize=6000 / nal_hrd=none / filler=0 / ip_ratio=1.40 / aq=1:1.00
Codec configuration box : avcC

Аудио
Идентификатор : 2
Формат : AAC LC
Формат/Информация : Advanced Audio Codec Low Complexity
Идентификатор кодека : mp4a-40-2
Продолжительность : 31 м. 17 с.
Вид битрейта : Постоянный
Битрейт : 256 Кбит/сек
Каналы : 2 канала
Channel layout : L R
Частота : 48,0 КГц
Частота кадров : 46,875 кадров/сек (1024 SPF)
Метод сжатия : С потерями
Размер потока : 57,3 Мбайт (11%)
Default : Да
Alternate group : 1
Any questions - projazzclub@gmail.com
147
Нет комментариев. Ваш будет первым!