Поиск

2011 Jacques Schwarz-Bart - Jazz Racine - Haiti at Banlieues Bleues [HDTV 1080p]

2011 Jacques Schwarz-Bart - Jazz Racine - Haiti at Banlieues Bleues [HDTV 1080p]
Дата проведения концерта (записи):
11 mars 2011
Место проведения:
Festival Banlieues Bleues
Время звучания:
01:00:05
Главы (разбивка по трекам):
нет
Качество:
HDTV
Контейнер:
MP4
Треклист:

1) Mile Kwe (trad., arr. Jacques Schwarz-Bart)
2) Bade Zile (Jacques Schwarz-Bart)
3) Sept fe (Jacques Schwarz-Bart)
4) Kouzin (trad., arr. Jacques Schwarz-Bart)
5) Vaudon Zepole (Jacques Schwarz-Bart)
6) Blues Jonjo (Jacques Schwarz-Bart)
7) Je vous aime Kongo (Jacques Schwarz-Bart)
8) Banda (Jacques Schwarz-Bart)

Состав:
  • Jacques Schwarz-Bart (saxophones)
  • Etienne Charles (trompette)
  • Erol Josue (voix)
  • Milan Milanovic (piano)
  • Luques Curtis (basse)
  • Obed Calvaire (batterie)
  • Jean Bonga (percussions)
Видео:
1920x1080 (16:9), 25.00 fps, AVC, 9383 Кбит, 0.180 bits/pixel
Аудио#1:
48.0 KHz, AAC-LC, 2 ch, stereo, 128-384 Kbps VBR
Описание:

Жак Шварц-Барт откроет 28-й выпуск фестиваля Banlieues Bleues своим репертуаром "Jazz-Racines Haïti" в пятницу, 11 марта 2011 года, в 20:00 в Сент-Уэне, на севере Парижа (Сена-Сен-Дени), Франция.

Хотя гваделузский музыкант Жак Шварц Барт начал играть на тенор-саксофоне довольно поздно, это не стало помехой для того, чтобы его быстро заметили. В Нью-Йорке он сотрудничал с Роем Харгроувом, Мешелл Ндегеоселло, Эрикой Баду и другими. Неосоул-певец/автор песен Д'Анджело прозвал его "братом Жаком".

Он отправился на побережье Гаити, чтобы познакомиться с "таинственной "корневой" музыкой" Гаити, с некоторыми из ее лучших представителей: Жан Бонга, мастер корневых барабанов; Обед Кальвайер — один из лучших джазовых барабанщиков в Нью-Йорке; Эвол Жозуэ, ведущий голос в репертуаре вуду". Выступление Шварц-Барта на фестивале Banlieues Bleues обещает стать главным событием во Франции.

Дополнительная информация:

This album is available on our DC++ hub:
Этот альбом доступен на нашем DC++ хабе:
dchub://hub.pro-jazz.com:7777

Отчёт DVDInfo/MediaInfo/BDInfo
Полное имя : \\Jacques Schwarz-Bart - LaBB\Jacques Schwarz-Bart - Jazz Racine - Haiti (Live at Banlieues Bleues).mp4
Формат : MPEG-4
Профиль формата : Base Media / Version 2
Идентификатор кодека : mp42
Размер файла : 4,27 Гбайт
Продолжительность : 1 ч. 0 м.
Режим общего битрейта : Переменный
Общий поток : 10,2 Мбит/сек
Дата кодирования : UTC 2014-02-17 10:17:26
Дата пометки : UTC 2014-02-17 10:17:26
Видео
Идентификатор : 2
Формат : AVC
Формат/Информация : Advanced Video Codec
Профиль формата : Main@L4.1
Параметр CABAC формата : Да
Параметр ReFrames формата : 2 кадра
Параметр GOP формата : M=3, N=30
Идентификатор кодека : avc1
Идентификатор кодека/Информация : Advanced Video Coding
Продолжительность : 1 ч. 0 м.
Продолжительность оригинала : 1 ч. 0 м.
Вид битрейта : Переменный
Битрейт : 9383 Кбит/сек
Максимальный битрейт : 10,0 Мбит/сек
Ширина : 1920 пикселей
Высота : 1088 пикселей
Высота оригинала : 1080 пикселей
Соотношение сторон : 16:9
Соотношение сторон в оригинале : 16:9
Режим частоты кадров : Постоянный
Частота кадров : 25,000 кадров/сек
Частота кадров в оригинале : 12,500 кадров/сек
Цветовое пространство : YUV
Субдискретизация насыщенности : 4:2:0
Битовая глубина : 8 бит
Тип развёртки : Прогрессивная
Бит/(Пиксели*Кадры) : 0.180
Размер потока : 3,94 Гбайт (92%)
Размер потока оригинала : 4,11 Гбайт (96%)
Язык : English
Дата кодирования : UTC 2014-02-17 10:17:26
Дата пометки : UTC 2014-02-17 10:17:26
Аудио
Идентификатор : 1
Формат : AAC
Формат/Информация : Advanced Audio Codec
Профиль формата : LC
Идентификатор кодека : 40
Продолжительность : 1 ч. 0 м.
Продолжительность оригинала : 1 ч. 0 м.
Вид битрейта : Постоянный
Битрейт : 384 Кбит/сек
Номинальный битрейт : 128 Кбит/сек
Каналы : 2 канала
Расположение каналов : Front: L R
Частота : 48,0 КГц
Метод сжатия : С потерями
Размер потока : 165 Мбайт (4%)
Размер потока оригинала : 165 Мбайт (4%)
Язык : English
Дата кодирования : UTC 2014-02-17 10:17:26
Дата пометки : UTC 2014-02-17 10:17:26
mdhd_Duration : 3605221
Any questions - projazzclub@gmail.com
162
Нет комментариев. Ваш будет первым!