Поиск

1957 Ella Fitzgerald - Jazz at the Philharmonic at Bruxelles (RTBF Archives) [HDTV 1080p]

1957 Ella Fitzgerald - Jazz at the Philharmonic at Bruxelles (RTBF Archives) [HDTV 1080p]
Стиль:
Время звучания:
00:41:50
Главы (разбивка по трекам):
нет
Качество:
HDTV
Контейнер:
MP4
Треклист:

01. Angel eyes
02. Lullaby of birdland
03. Love for sale
04. Tenderly
05. April in Paris
06. One of those things
07. I got the guy
08. I can't give you anything but love
09. Air Mail Special
10. It don't mean a thing (if it ain't got that swing)

Состав:
Видео:
AVC (h.264) / 1920x1080 / progressive / 16x9 / 1 991 kbps / 25 fps
Аудио#1:
AAC-LC / 256 kbps / 48,0 kHz / 2.0 stereo
Описание:

В 1957 году Элла Фицджеральд выступила с концертом во Дворце изящных искусств в Брюсселе. Элла исполняет: "Angel eyes", "Lullaby of birdland", "Love for sale", "Tenderly", "April in Paris", "One of those things", "I got the guy", "I can't give you anything but love", "Air Mail Special", "It don't mean a thing (if it ain't got that swing)". Норман Гранц произносит несколько слов в конце концерта.

Элла Фицджеральд и ее звездный состав исполняют свинг, свинг и скэт в Брюсселе. К концу 1950-х годов несравненная вокалистка Элла Фицджеральд находилась на вершине своего могущества. Окрыленная успехом серии своих "песенников", Фицджеральд в сопровождении своего менеджера и продюсера Нормана Гранца и блестящего состава музыкантов, включая пианиста Оскара Питерсона, басиста Рэя Брауна, барабанщика Джо Джонса и трубача Роя Элдриджа, отправилась в европейское турне 1957 года в рамках культового проекта Гранца "Джаз в филармонии". На этом радостном брюссельском концерте, запечатленном бельгийским телевидением, Элла и ее команда находятся в отличной форме, отдавая все свои силы благодарной публике. Фицджеральд была столь же очаровательной и убедительной исполнительницей баллад, сколь и жестким импровизатором. Здесь она демонстрирует обе стороны своего непревзойденного артистизма.

Светлые баллады "Angel Eyes", "Love for Sale" и "Tenderly" соседствуют со свинговыми композициями "Lullabye of Birdland", "April In Paris", "Just One of Those Things", "I Can't Give You Anything But Love" (в сочетании с ласковыми обращениями Эллы к другим современным исполнителям, включая точную пародию на Луи Армстронга)! А когда она переходит к своим знаменитым скэттинговым номерам, она переворачивает дом вверх дном. Оскар Питерсон, возглавляющий квартет, в который входят его постоянные товарищи по трио Рэй Браун и Херб Эллис, также присоединяется к Джо Джонсу, барабанщику-новатору, который произвел революцию в роли своего инструмента в группе Каунта Бейси. А когда к ансамблю присоединяется великий трубач Рой Элдридж в заключительных номерах, волнение только усиливается. Если у вас еще остались сомнения в том, что Элла Фицджеральд была величайшей джазовой певицей своей эпохи, этот концерт сотрет их все.

Дополнительная информация:

This album is available on our DC++ hub:
Этот альбом доступен на нашем DC++ хабе:
dchub://hub.pro-jazz.com:7777

Отчёт DVDInfo/MediaInfo/BDInfo
Общее
Полное имя : \\Ella Fitzgerald\1957 Ella Fitzgerald - RTBF Archives [HDTV 1080p]\1957 Ella Fitzgerald - RTBF Archives [HDTV 1080p].mp4
Формат : MPEG-4
Профиль формата : Base Media
Идентификатор кодека : isom (isom/iso2/avc1/mp41)
Размер файла : 652 Мбайт
Продолжительность : 40 м. 29 с.
Общий поток : 2 253 Кбит/сек
Частота кадров : 25,000 кадров/сек
HDVideo : Yes

Видео
Идентификатор : 1
Формат : AVC
Формат/Информация : Advanced Video Codec
Профиль формата : High@L4.1
Настройки формата : CABAC / 3 Ref Frames
Параметр CABAC формата : Да
Параметр RefFrames формата : 3 кадра
Идентификатор кодека : avc1
Идентификатор кодека/Информация : Advanced Video Coding
Продолжительность : 40 м. 29 с.
Битрейт : 1 991 Кбит/сек
Ширина : 1 920 пикселей
Высота : 1 080 пикселей
Соотношение сторон : 16:9
Active width : 1 430 пикселей
Active height : 1 073 пикселя
Active display aspect ratio : 4:3
Режим частоты кадров : Постоянный
Частота кадров : 25,000 кадров/сек
Цветовое пространство : YUV
Субдискретизация насыщенности : 4:2:0
Битовая глубина : 8 бит
Тип развёртки : Прогрессивная
Бит/(Пиксели*Кадры) : 0.038
Размер потока : 576 Мбайт (88%)
Библиотека кодирования : x264 core 152 r2854 e9a5903
Настройки программы : cabac=1 / ref=4 / deblock=1:0:0 / analyse=0x3:0x113 / me=hex / subme=7 / psy=1 / psy_rd=1.00:0.00 / mixed_ref=1 / me_range=16 / chroma_me=1 / trellis=1 / 8x8dct=1 / cqm=0 / deadzone=21,11 / fast_pskip=1 / chroma_qp_offset=-2 / threads=6 / lookahead_threads=1 / sliced_threads=0 / nr=0 / decimate=1 / interlaced=0 / bluray_compat=0 / constrained_intra=0 / bframes=3 / b_pyramid=1 / b_adapt=1 / b_bias=0 / direct=1 / weightb=1 / open_gop=0 / weightp=2 / keyint=50 / keyint_min=25 / scenecut=0 / intra_refresh=0 / rc_lookahead=40 / rc=cbr / mbtree=1 / bitrate=2000 / ratetol=1.0 / qcomp=0.60 / qpmin=0 / qpmax=69 / qpstep=4 / vbv_maxrate=2000 / vbv_bufsize=6000 / nal_hrd=none / filler=0 / ip_ratio=1.40 / aq=1:1.00
Codec configuration box : avcC

Аудио
Идентификатор : 2
Формат : AAC LC
Формат/Информация : Advanced Audio Codec Low Complexity
Идентификатор кодека : mp4a-40-2
Продолжительность : 40 м. 29 с.
Вид битрейта : Постоянный
Битрейт : 256 Кбит/сек
Каналы : 2 канала
Channel layout : L R
Частота : 48,0 КГц
Частота кадров : 46,875 кадров/сек (1024 SPF)
Метод сжатия : С потерями
Размер потока : 74,1 Мбайт (11%)
Default : Да
Alternate group : 1
Any questions - projazzclub@gmail.com
161
Нет комментариев. Ваш будет первым!